<?xml version="1.0" standalone="no"?>
<!DOCTYPE svg PUBLIC "-//W3C//DTD SVG 1.1//EN" "http://www.w3.org/Graphics/SVG/1.1/DTD/svg11.dtd" >
<svg xmlns="http://www.w3.org/2000/svg">
<metadata>
Created by FontPrep 20130207 at Tue Nov 26 13:15:31 2019
 By Mauricio Duran
Copyright Hans Reichel, 1996. Published by FontShop International FontFont release 17
</metadata>
<defs>
<font id="f7357bcd9496938a4e4ec6b6521ba369" horiz-adv-x='1024' >
  <font-face 
    font-family="Dax-Light"
    font-weight="300"
    font-stretch="normal"
    units-per-em="2048"
    panose-1="2 0 5 6 4 0 0 2 0 4"
    ascent="1608"
    descent="-440"
    x-height="1104"
    cap-height="1409"
    bbox="-236 -461 2245 1829"
    underline-thickness="102"
    underline-position="-153"
    unicode-range="U+0020-FB02"
  />
<missing-glyph horiz-adv-x="2048" 
 />
    <glyph glyph-name=".notdef" horiz-adv-x="2048" 
 />
    <glyph glyph-name=".null" horiz-adv-x="0" 
 />
    <glyph glyph-name="nonmarkingreturn" horiz-adv-x="573" 
 />
    <glyph glyph-name="space" unicode=" " horiz-adv-x="573" 
 />
    <glyph glyph-name="exclam" unicode="!" horiz-adv-x="550" 
d="M387 79q0 -36 -25.5 -61.5t-60.5 -25.5t-60.5 25.5t-25.5 61.5t25.5 61.5t60.5 25.5t60.5 -25.5t25.5 -61.5zM365 1409l-25 -969h-80l-24 969h129z" />
    <glyph glyph-name="quotedbl" unicode="&#x22;" horiz-adv-x="727" 
d="M216 1426q38 0 63 -31l-35 -484h-58l-32 484q24 31 62 31zM511 1426q37 0 62 -31l-34 -484h-58l-32 484q25 31 62 31z" />
    <glyph glyph-name="numbersign" unicode="#" 
d="M682 899h-260l-64 -352h258zM995 899h-241l-66 -352h232v-62h-244l-84 -485h-70l84 485h-258l-90 -485h-68l86 483h-227v64h238l65 352h-227v62h240l77 448h72l-80 -448h260l78 448h72l-80 -448h231v-62z" />
    <glyph glyph-name="dollar" unicode="$" 
d="M287 1057q0 -171 104.5 -218.5t180.5 -76.5t141 -76t110 -114.5t45 -169.5q0 -181 -99 -291.5t-257 -126.5l16 -242h-86l17 240q-188 3 -295 75l35 76q107 -67 249 -67t225 87t83 213t-62.5 195.5t-181.5 112.5t-227.5 121t-108.5 260q0 142 91 251t245 121l-16 230h82
l-17 -230q153 -4 252 -71l-31 -72q-112 66 -235 66t-191.5 -81t-68.5 -212z" />
    <glyph glyph-name="percent" unicode="%" horiz-adv-x="1714" 
d="M586 955q0 60 -4 134t-21.5 138.5t-52.5 108.5t-96.5 44t-96 -44t-57 -122.5t-22.5 -198.5t4 -192.5t22.5 -136t53 -106.5t96 -43t96.5 43t52.5 106.5t21.5 136t4 132.5zM1479 458.5q0 59.5 -4.5 133.5t-21.5 138.5t-53 108.5t-97.5 44t-96.5 -44t-52 -108.5
t-21.5 -138.5t-4.5 -133.5t4.5 -133t21.5 -137t52 -106.5t96.5 -43t96.5 43t52 106.5t22.5 137t5.5 133zM412 473q-258 0 -258 479.5t258 479.5t258 -402.5t-89 -479.5t-169 -77zM1124 1401l-475 -1415l-65 22l477 1413zM1303 -23q-259 -1 -259 479t259 480q144 0 201 -139
t57 -338q0 -327 -89.5 -404.5t-168.5 -77.5z" />
    <glyph glyph-name="ampersand" unicode="&#x26;" horiz-adv-x="1236" 
d="M598 55q166 0 250 37v746q-336 -83 -471 -178.5t-135 -276.5q0 -150 95 -239t261 -89zM121 364q0 167 102.5 278.5t290.5 162.5v4q-141 33 -222 114t-81 207t97.5 213t260.5 87q78 0 147.5 -22t110.5 -48l-30 -66q-91 60 -221 60q-129 0 -190.5 -62.5t-61.5 -173.5
t86 -180.5t211 -69.5q191 0 337 65.5t197 94.5l31 -78q-82 -40 -230 -82v-811q-103 -77 -334.5 -77t-366 108.5t-134.5 275.5z" />
    <glyph glyph-name="quotesingle" unicode="'" horiz-adv-x="434" 
d="M217.5 1426q38.5 0 63.5 -31l-35 -484h-60l-32 484q25 31 63.5 31z" />
    <glyph glyph-name="parenleft" unicode="(" horiz-adv-x="706" 
d="M279 584.5q0 -518.5 346 -1006.5l-58 -37q-213 283 -313 536t-100 509t100 508t313 534l58 -37q-346 -488 -346 -1006.5z" />
    <glyph glyph-name="parenright" unicode=")" horiz-adv-x="706" 
d="M428 584.5q0 518.5 -346 1006.5l57 37q211 -283 312.5 -534.5t101.5 -507.5t-101.5 -509t-312.5 -536l-57 37q346 488 346 1006.5z" />
    <glyph glyph-name="asterisk" unicode="*" horiz-adv-x="823" 
d="M330 1134.5q0 -30.5 -21.5 -51t-51.5 -20.5t-51.5 20.5t-21.5 51t21.5 52t51.5 21.5t51.5 -21.5t21.5 -52zM258 1396q0 -30 -21.5 -51.5t-51.5 -21.5t-51 21.5t-21 51.5t21.5 51t51.5 21t51 -21t21 -51zM637 1134q0 -30 -21.5 -51.5t-51.5 -21.5t-51 21.5t-21 51.5t21 51
t51 21t51.5 -21t21.5 -51zM477 1321q0 -29 -18.5 -47.5t-46.5 -18.5t-47 18.5t-19 47.5t19.5 47t47.5 18t46 -18t18 -47zM485 1556.5q0 -30.5 -21.5 -51t-51.5 -20.5t-51 20.5t-21 51t21.5 52t51.5 21.5t51 -21.5t21 -52zM711 1394q0 -30 -21.5 -51.5t-51.5 -21.5
t-51.5 21.5t-21.5 51.5t21.5 51t51.5 21t51.5 -21t21.5 -51z" />
    <glyph glyph-name="plus" unicode="+" 
d="M905 645h-342v-377h-84v377h-340v84h340v375h84v-375h342v-84z" />
    <glyph glyph-name="comma" unicode="," horiz-adv-x="493" 
d="M277 147q39 0 49 -10t14 -20l-238 -463h-65l166 463q35 30 74 30z" />
    <glyph glyph-name="hyphen" unicode="-" horiz-adv-x="692" 
d="M559 643h-426v98h426v-98z" />
    <glyph glyph-name="period" unicode="." horiz-adv-x="479" 
d="M326 82q0 -35 -26 -60.5t-60.5 -25.5t-60 25.5t-25.5 60.5t25.5 60.5t60 25.5t60.5 -25.5t26 -60.5z" />
    <glyph glyph-name="slash" unicode="/" horiz-adv-x="1134" 
d="M1094 1591l-975 -2052l-78 39l973 2050z" />
    <glyph glyph-name="zero" unicode="0" 
d="M636 56.5q177 -0.5 177 663.5q0 245 -40 375t-97.5 198.5t-153.5 68.5t-153.5 -68.5t-97.5 -200.5t-40 -388q0 -498 114 -573t291 -75.5zM922 704.5q0 -116.5 -16.5 -244.5t-61.5 -234.5t-122 -176t-200 -69.5t-199.5 69.5t-121.5 176t-61.5 234.5t-16.5 244.5
t16.5 244.5t61.5 234.5t121.5 176.5t199.5 70t200 -70t122 -176.5t61.5 -234.5t16.5 -244.5z" />
    <glyph glyph-name="one" unicode="1" 
d="M684 0h-111v1237q-94 -62 -213.5 -86.5t-160.5 -28.5l-15 68q246 33 326 107.5t102 111.5h72v-1409z" />
    <glyph glyph-name="two" unicode="2" 
d="M131 1356q140 74 319 74t294.5 -97.5t115.5 -258.5t-172 -402l-424 -580h617v-92h-787l504 713q119 168 129 241.5t10 108.5q0 281 -321 280q-144 0 -250 -61z" />
    <glyph glyph-name="three" unicode="3" 
d="M137 1360q126 70 292 70t275 -82.5t109 -220.5q0 -139 -88.5 -220.5t-192.5 -118.5v-4q227 -51 283.5 -170.5t56.5 -262.5t-125.5 -257t-326.5 -114t-314 69l33 78q102 -64 265 -64q164 0 258 87.5t94 246.5q0 202 -139 274t-293 60v72q166 12 270 95.5t104 209.5
t-75.5 183t-186.5 57q-169 0 -264 -58z" />
    <glyph glyph-name="four" unicode="4" 
d="M705 416v663q0 84 1 144l1 59h-5l-29 -56q-30 -56 -77 -136l-389 -674h498zM922 342h-119v-342h-98v342h-584v82l581 985h101v-993h119v-74z" />
    <glyph glyph-name="five" unicode="5" 
d="M772 395q0 310 -209 339.5t-366 4.5l49 670h616v-92h-536l-35 -500q291 40 444.5 -79t153.5 -339q0 -168 -124 -293.5t-322 -125.5q-197 0 -316 71l31 76q115 -66 260 -66t249.5 88t104.5 246z" />
    <glyph glyph-name="six" unicode="6" 
d="M817 406q0 354 -342 354q-128 0 -223 -43q-19 -93 -19 -213q0 -205 73 -325t221 -120t219 101.5t71 245.5zM477 829q207 0 328 -112t121 -300t-102 -312.5t-294 -124.5q-193 0 -298 135t-105 408t117.5 466.5t268 294t269.5 135.5l31 -73q-175 -64 -322 -189t-229 -373
q111 45 215 45z" />
    <glyph glyph-name="seven" unicode="7" 
d="M141 1317v92h813l-194 -442q-169 -389 -256.5 -643t-108.5 -324h-143l569 1317h-680z" />
    <glyph glyph-name="eight" unicode="8" 
d="M753.5 522.5q-61.5 80.5 -233.5 175.5q-178 -99 -236.5 -180.5t-58.5 -197.5t88 -188.5t212 -72.5q125 0 207.5 76.5t82.5 191.5t-61.5 195.5zM707 1283.5q-71 72.5 -186 72.5q-114 0 -184.5 -71t-70.5 -178t56.5 -176t203.5 -151q145 80 198.5 150t53.5 176
q0 105 -71 177.5zM922 316q0 -66 -31 -129.5t-115 -135t-250 -71.5t-284.5 92.5t-118.5 261.5t115.5 259.5t207.5 143.5q-222 122 -250 216.5t-28 158.5q0 134 104 226t249 92t250.5 -92.5t105.5 -245.5q0 -154 -99.5 -231t-177.5 -120q182 -105 252 -202.5t70 -222.5z" />
    <glyph glyph-name="nine" unicode="9" 
d="M227 995q0 -354 342 -354q129 0 224 43q18 95 18 213q0 205 -73.5 325.5t-221.5 120.5t-218.5 -102.5t-70.5 -245.5zM568 569q-206 0 -327.5 112t-121.5 298t100.5 313t293.5 127q194 0 299.5 -135t105.5 -409t-120 -469t-269.5 -293.5t-266.5 -132.5l-31 73
q177 65 325 191t224 370q-105 -45 -212 -45z" />
    <glyph glyph-name="colon" unicode=":" horiz-adv-x="479" 
d="M326 82q0 -35 -26 -60.5t-60.5 -25.5t-60 25.5t-25.5 60.5t25.5 60.5t60 25.5t60.5 -25.5t26 -60.5zM326 704.5q0 -34.5 -26 -60.5t-60.5 -26t-60 26t-25.5 60.5t25.5 60.5t60 26t60.5 -26t26 -60.5z" />
    <glyph glyph-name="semicolon" unicode=";" horiz-adv-x="493" 
d="M203 117q37 37 84 37t53 -37l-238 -463h-65zM340 704.5q0 -34.5 -25.5 -60.5t-61.5 -26t-61.5 26t-25.5 60.5t25.5 60.5t61.5 26t61.5 -26t25.5 -60.5z" />
    <glyph glyph-name="less" unicode="&#x3c;" 
d="M905 309l-766 344v82l766 346v-92l-669 -295l669 -295v-90z" />
    <glyph glyph-name="equal" unicode="=" 
d="M905 477h-766v84h766v-84zM139 893h766v-82l-766 -2v84z" />
    <glyph glyph-name="greater" unicode="&#x3e;" 
d="M905 653l-766 -344v90l670 295l-670 295v92l766 -346v-82z" />
    <glyph glyph-name="question" unicode="?" horiz-adv-x="749" 
d="M451 80q0 -35 -26 -60.5t-60.5 -25.5t-60 25.5t-25.5 60.5t25.5 60.5t60 25.5t60.5 -25.5t26 -60.5zM362 1423q160 0 258.5 -85.5t98.5 -221.5t-95 -224.5t-198 -117.5l-23 -334h-79l-27 373q114 26 180 75.5t97.5 98.5t31.5 115q0 104 -63.5 170.5t-196.5 66.5t-217 -55
l-37 66q110 73 270 73z" />
    <glyph glyph-name="at" unicode="@" horiz-adv-x="1783" 
d="M679 778.5q-87 -167.5 -87 -331.5t68 -207t136 -43t128.5 52t119.5 162.5t63 253.5t-56 212t-138 69q-147 0 -234 -167.5zM1059 332q-105 -197 -302 -197q-83 0 -167 51t-84 260q0 80 26.5 177.5t76.5 182.5t124 142.5t168 57.5q144 0 188 -85t54 -128l35 178h77
l-61 -289q-16 -78 -36.5 -169t-20.5 -176t21.5 -114.5t79.5 -29.5t118.5 65.5t108.5 163.5t77 213t29 225q0 227 -141.5 373.5t-378.5 146.5q-180 0 -333 -78.5t-264.5 -208.5t-174 -298.5t-62.5 -342.5q0 -333 185.5 -507t496.5 -174q222 0 370 69t298 232l30 -39
q-205 -242 -392 -279t-331 -37t-281.5 47.5t-289 190.5t-151.5 494q0 197 70.5 374.5t192.5 313t285.5 215.5t352.5 80q261 0 420 -157.5t159 -428.5q0 -231 -93.5 -420.5t-182 -242t-156.5 -52.5t-103.5 43t-37.5 158z" />
    <glyph glyph-name="A" unicode="A" horiz-adv-x="1169" 
d="M815 557l-184 569q-29 88 -36 130l-7 42h-4l-11 -41q-10 -41 -38 -129l-187 -571h467zM1116 0h-121l-155 481h-516l-160 -481h-111l488 1409h92z" />
    <glyph glyph-name="B" unicode="B" horiz-adv-x="1112" 
d="M885 379q0 172 -119 254t-379 82h-108v-617q106 -39 208 -39q190 0 294 74t104 246zM831 1077q0 141 -87 211t-228 70t-237 -35v-547h108q349 0 396.5 113.5t47.5 187.5zM504 1430q211 0 325.5 -94t114.5 -244t-86 -236t-201 -104v-4q117 -14 232 -114.5t115 -256.5
q0 -204 -136.5 -300.5t-351.5 -96.5t-346 75v1299q123 76 334 76z" />
    <glyph glyph-name="C" unicode="C" horiz-adv-x="966" 
d="M635 -20q-235 0 -374.5 207t-139.5 515t101.5 460.5t196.5 210t201 57.5q169 0 275 -74l-35 -70q-89 62 -205 62q-213 0 -312 -185t-99 -458q0 -438 148.5 -538.5t261.5 -100.5t206 59l35 -70q-88 -75 -260 -75z" />
    <glyph glyph-name="D" unicode="D" horiz-adv-x="1193" 
d="M494 63q244 0 350 170t106 490q0 633 -452 633q-127 0 -211 -33v-1225q76 -35 207 -35zM514 1430q266 0 412.5 -184.5t146.5 -522.5q0 -532 -208 -637.5t-336 -105.5q-245 0 -359 73v1301q122 76 344 76z" />
    <glyph glyph-name="E" unicode="E" horiz-adv-x="886" 
d="M791 0h-621v1409h621v-80h-504v-557h456v-80h-456v-612h504v-80z" />
    <glyph glyph-name="F" unicode="F" horiz-adv-x="870" 
d="M786 1329h-499v-557h454v-80h-454v-692h-117v1409h616v-80z" />
    <glyph glyph-name="G" unicode="G" horiz-adv-x="1181" 
d="M1024 55q-124 -75 -324 -75q-241 0 -410 186t-169 542q0 355 166 538.5t383 183.5t321 -70l-35 -72q-105 60 -262 60q-207 0 -328.5 -159t-121.5 -475t129 -485.5t343 -169.5q114 0 191 41v592h-274v80h391v-717z" />
    <glyph glyph-name="H" unicode="H" horiz-adv-x="1189" 
d="M1020 0h-117v692h-616v-692h-117v1409h117v-637h616v637h117v-1409z" />
    <glyph glyph-name="I" unicode="I" horiz-adv-x="473" 
d="M295 0h-117v1409h117v-1409z" />
    <glyph glyph-name="J" unicode="J" horiz-adv-x="473" 
d="M295 39q0 -195 -115 -326t-276 -164v84q186 61 230 191.5t44 214.5v1370h117v-1370z" />
    <glyph glyph-name="K" unicode="K" horiz-adv-x="989" 
d="M291 743v-743h-113v1409h113v-661h4l504 661h125l-525 -659l545 -750h-135l-514 743h-4z" />
    <glyph glyph-name="L" unicode="L" horiz-adv-x="819" 
d="M752 0h-574v1409h117v-1329h457v-80z" />
    <glyph glyph-name="M" unicode="M" horiz-adv-x="1585" 
d="M1462 0h-110l-129 1178q-8 66 -10 113l-1 48h-4l-10 -48q-10 -48 -29 -113l-327 -1178h-105l-325 1178q-16 61 -27 111l-10 50h-4l-3 -49q-3 -49 -10 -110l-131 -1180h-104l176 1409h137l316 -1135q20 -72 28 -115l8 -44h5l7 44q7 44 27 115l320 1135h137z" />
    <glyph glyph-name="N" unicode="N" horiz-adv-x="1318" 
d="M268 0h-98v1409h149l650 -1122q41 -70 62 -114l22 -44h6l-4 46q-4 46 -4 118v1116h98v-1409h-119l-665 1145q-54 94 -99 184h-4l6 -186v-1143z" />
    <glyph glyph-name="O" unicode="O" horiz-adv-x="1218" 
d="M238 707q0 -639 372 -639t371 639q0 434 -130 538.5t-242 104.5q-205 0 -288 -184t-83 -459zM1098 704q0 -151 -27 -283t-86 -230.5t-152.5 -154.5t-284 -56t-309 199t-118.5 526q0 505 178 615t309 110t224.5 -57.5t152.5 -156t86 -230t27 -282.5z" />
    <glyph glyph-name="P" unicode="P" horiz-adv-x="1026" 
d="M471 1356q-107 0 -186 -33v-635l67 -6q242 -23 354.5 70.5t112.5 263.5t-83 255t-265 85zM503 1430q207 0 319 -114t112 -306t-142.5 -309.5t-435.5 -94.5l-71 6v-612h-115v1354q126 76 333 76z" />
    <glyph glyph-name="Q" unicode="Q" horiz-adv-x="1218" 
d="M983 712.5q0 114.5 -15.5 228.5t-56.5 205t-113.5 147.5t-187 56.5t-187.5 -56.5t-114 -147.5t-56 -205t-15 -228.5t14 -228t54 -206t114 -149.5t190.5 -57t189 57t113.5 149.5t55.5 206t14.5 228zM299 1320.5q178 109.5 310 109.5q252 0 370.5 -201t118.5 -520
q0 -497 -281 -678l256 -326l-92 -84l-225 387q-61 -20 -170 -20t-287 108.5t-178 611.5t178 612.5z" />
    <glyph glyph-name="R" unicode="R" horiz-adv-x="1058" 
d="M434 680q385 0 385 339t-338 339q-123 0 -192 -37v-625q53 -16 145 -16zM289 676v-676h-113v1356q43 29 125 51.5t188 22.5q217 0 331 -106.5t114 -304.5t-128 -301.5t-351 -94.5v-5l506 -618h-138l-528 676h-6z" />
    <glyph glyph-name="S" unicode="S" horiz-adv-x="933" 
d="M494 1348q-129 0 -197 -80t-68 -211q0 -160 103.5 -213t181.5 -82t141.5 -78t109.5 -119t46 -170q0 -190 -114 -302.5t-297 -112.5q-184 0 -300 75l37 82q99 -67 246 -67t229 85t82 210t-63 193.5t-181 112.5t-226.5 124t-108.5 239q0 179 104.5 287.5t267.5 108.5
t269 -74l-33 -76q-100 68 -229 68z" />
    <glyph glyph-name="T" unicode="T" horiz-adv-x="833" 
d="M772 1329h-297v-1329h-117v1329h-297v80h711v-80z" />
    <glyph glyph-name="U" unicode="U" horiz-adv-x="1167" 
d="M997 395q0 -174 -110 -296t-302.5 -122t-303.5 121.5t-111 296.5v1014h117v-1014q0 -148 89.5 -235.5t213.5 -87.5t213.5 87.5t89.5 235.5v1014h104v-1014z" />
    <glyph glyph-name="V" unicode="V" 
d="M528 139h4q0 4 7.5 29t18.5 71t24 91l292 1079h111l-405 -1409h-101l-413 1409h124l291 -1077q47 -176 47 -193z" />
    <glyph glyph-name="W" unicode="W" horiz-adv-x="1648" 
d="M1180 131h4q0 40 28 162l242 1116h111l-336 -1409h-103l-266 1104q-16 66 -23 114l-8 48h-4l-6 -47q-6 -47 -22 -115l-271 -1104h-100l-336 1409h125l231 -1116q12 -61 21 -112l8 -50h4l8 50q8 50 25 112l270 1116h99l268 -1116q8 -35 15 -75t11.5 -61.5t4.5 -25.5z" />
    <glyph glyph-name="X" unicode="X" horiz-adv-x="1024" 
d="M958 0h-133l-313 645h-4l-326 -645h-116l389 729l-344 680h129l272 -586h4l301 586h107l-353 -668z" />
    <glyph glyph-name="Y" unicode="Y" horiz-adv-x="991" 
d="M555 0h-115v641l-389 768h129l320 -690h4l330 690h112l-391 -768v-641z" />
    <glyph glyph-name="Z" unicode="Z" horiz-adv-x="847" 
d="M780 0h-723l557 1329h-532v80h680l-553 -1329h571v-80z" />
    <glyph glyph-name="bracketleft" unicode="[" horiz-adv-x="677" 
d="M565 -440h-391v2048h391v-70h-289v-1907h289v-71z" />
    <glyph glyph-name="backslash" unicode="\" horiz-adv-x="1146" 
d="M1106 -420l-84 -41l-981 2048l84 43z" />
    <glyph glyph-name="bracketright" unicode="]" horiz-adv-x="677" 
d="M504 -440h-391v71h288v1907h-288v70h391v-2048z" />
    <glyph glyph-name="asciicircum" unicode="^" horiz-adv-x="1146" 
d="M573.5 1425q44.5 0 75.5 -45l289 -374l-35 -37l-330 379l-329 -379l-35 37l289 374q31 45 75.5 45z" />
    <glyph glyph-name="underscore" unicode="_" 
d="M1065 -379h-1085v78h1085v-78z" />
    <glyph glyph-name="grave" unicode="`" horiz-adv-x="348" 
d="M31 1532q41 0 88 -29l145 -274h-65l-219 274q10 29 51 29z" />
    <glyph glyph-name="a" unicode="a" horiz-adv-x="978" 
d="M501 47q136 0 216 45v557q-269 -36 -388.5 -107.5t-119.5 -246.5q0 -133 78 -190.5t214 -57.5zM100 281q0 125 48.5 199.5t163 140t405.5 94.5v76q0 206 -105.5 229.5t-162.5 23.5q-129 0 -256 -71l-31 71q43 25 123 52.5t163 27.5q170 0 271.5 -78.5t101.5 -257.5v-731
q-130 -77 -333 -77q-204 0 -296 88t-92 213z" />
    <glyph glyph-name="b" unicode="b" horiz-adv-x="1034" 
d="M811 565q0 327 -123.5 405.5t-227.5 78.5t-194 -50v-909q68 -33 174 -33q194 0 282.5 135.5t88.5 372.5zM480 1116q116 0 193 -39t132 -110.5t86 -173t31 -297t-123.5 -356t-345.5 -160.5q-182 0 -295 75v1553h108v-547q98 55 214 55z" />
    <glyph glyph-name="c" unicode="c" horiz-adv-x="833" 
d="M752 49q-79 -69 -246 -69t-280 155t-113 419t111 417t298 153q128 0 173.5 -30.5t56.5 -38.5l-31 -70q-77 57 -172 57q-324 0 -324 -483q0 -346 116 -419.5t206 -73.5t172 59z" />
    <glyph glyph-name="d" unicode="d" horiz-adv-x="1034" 
d="M601 57q118 0 167 37v928q-80 22 -176 22t-232.5 -81.5t-136.5 -420.5t130 -412t248 -73zM877 55q-109 -75 -319 -75t-327.5 151t-117.5 413t130 415t347 153q84 0 178 -27v523h109v-1553z" />
    <glyph glyph-name="e" unicode="e" horiz-adv-x="1038" 
d="M529 1042q-141 0 -227.5 -115t-86.5 -356l602 93q0 378 -288 378zM113 550q0 284 115.5 429t303.5 145t291 -126.5t103 -389.5l-709 -104q12 -221 108.5 -329.5t258.5 -108.5t268 65l35 -80q-110 -71 -301 -71q-333 0 -403 210t-70 360z" />
    <glyph glyph-name="f" unicode="f" horiz-adv-x="591" 
d="M328 1298v-194h204v-64h-204v-1040h-111v1038h-129v66h129v176q0 141 78 234.5t237 93.5v-70q-204 -20 -204 -240z" />
    <glyph glyph-name="g" unicode="g" horiz-adv-x="1034" 
d="M598 1055q-197 0 -286 -138.5t-89 -372.5q0 -489 342 -489q118 0 205 54v909q-64 37 -172 37zM582 1124q188 0 295 -73v-1082q0 -198 -103.5 -314t-295.5 -116q-191 0 -302 72l43 78q108 -66 255 -66t221.5 89.5t74.5 240.5v86q-86 -55 -208 -55q-123 0 -202 38.5
t-163 147.5t-84 365q0 411 176 500t293 89z" />
    <glyph glyph-name="h" unicode="h" horiz-adv-x="1046" 
d="M521 1112q200 0 284 -94t84 -223v-795h-111v791q0 172 -90 209.5t-197 37.5t-223 -69v-969h-110v1608h110v-572q140 76 253 76z" />
    <glyph glyph-name="i" unicode="i" horiz-adv-x="454" 
d="M283 0h-111v1104h111v-1104zM301 1413q0 -31 -21.5 -52.5t-52 -21.5t-52 21.5t-21.5 52.5t21.5 52.5t52 21.5t52 -21.5t21.5 -52.5z" />
    <glyph glyph-name="j" unicode="j" horiz-adv-x="460" 
d="M178 33v1071h111v-1069q0 -204 -97 -331.5t-227 -156.5v74q213 89 213 412zM307 1413q0 -31 -21.5 -52.5t-52 -21.5t-52 21.5t-21.5 52.5t21.5 52.5t52 21.5t52 -21.5t21.5 -52.5z" />
    <glyph glyph-name="k" unicode="k" horiz-adv-x="901" 
d="M276 575v-575h-106v1608h106v-1028h5l434 524h123l-455 -526l498 -578h-129l-471 575h-5z" />
    <glyph glyph-name="l" unicode="l" horiz-adv-x="458" 
d="M285 0h-111v1608h111v-1608z" />
    <glyph glyph-name="m" unicode="m" horiz-adv-x="1669" 
d="M1511 809v-809h-110v805q0 165 -86 203.5t-156 38.5q-160 0 -268 -121v-926h-111v815q0 104 -69.5 169t-205.5 65t-237 -45v-1004h-110v1047q141 77 350 77q125 0 202.5 -37.5t129.5 -105.5q132 143 321 143t269.5 -95.5t80.5 -219.5z" />
    <glyph glyph-name="n" unicode="n" horiz-adv-x="1046" 
d="M158 1047q146 77 355 77q210 0 293 -95.5t83 -219.5v-809h-111v803q0 108 -59.5 177t-198.5 69t-252 -45v-1004h-110v1047z" />
    <glyph glyph-name="o" unicode="o" horiz-adv-x="1032" 
d="M809 696.5q0 356.5 -293 356.5t-293 -420.5t102.5 -497t193.5 -76.5t148.5 44t99.5 140.5t42 453zM920 552q0 -258 -98.5 -415t-303.5 -157t-305 155.5t-100 415.5q0 403 146.5 488t256.5 85t186 -44t147 -157t71 -371z" />
    <glyph glyph-name="p" unicode="p" horiz-adv-x="1034" 
d="M811 563q0 492 -356 492q-117 0 -189 -39v-934q78 -27 158 -27q193 0 290 135t97 373zM158 1049q114 75 320 75t325 -151.5t119 -413.5q0 -261 -129 -418t-351 -157q-94 0 -176 28v-452h-108v1489z" />
    <glyph glyph-name="q" unicode="q" horiz-adv-x="1034" 
d="M598 1055q-197 0 -286 -138.5t-89 -372.5q0 -489 342 -489q118 0 205 54v909q-64 37 -172 37zM582 1124q188 0 295 -73v-1491h-107v479q-86 -55 -208 -55q-123 0 -202 38.5t-163 147.5t-84 365q0 411 176 500t293 89z" />
    <glyph glyph-name="r" unicode="r" horiz-adv-x="620" 
d="M268 0h-110v1047q96 47 173.5 62t241.5 15l-32 -96q-118 32 -184 9t-89 -40v-997z" />
    <glyph glyph-name="s" unicode="s" horiz-adv-x="804" 
d="M433 1047q-103 0 -157.5 -60.5t-54.5 -148.5t58.5 -137t143.5 -79q151 -54 212 -134.5t61 -198.5t-98 -211.5t-255 -93.5t-255 73l33 78q75 -65 205 -65q129 0 194.5 64.5t65.5 162.5t-52.5 148.5t-144.5 84.5q-161 59 -215.5 136.5t-54.5 154.5q0 139 87 222t222 83
q76 0 137.5 -23.5t93.5 -49.5l-32 -72q-91 66 -194 66z" />
    <glyph glyph-name="t" unicode="t" horiz-adv-x="612" 
d="M447 -6q-54 0 -142 44t-88 214v786h-129v66h129v264l111 41v-305h204v-64h-204v-794q0 -68 35.5 -121t123.5 -53h17q18 0 28 4v-72q-31 -10 -85 -10z" />
    <glyph glyph-name="u" unicode="u" horiz-adv-x="1024" 
d="M158 324v780h110v-776q0 -117 63 -193t199 -76t226 54v991h110v-1036q-138 -91 -337 -91t-285 94.5t-86 252.5z" />
    <glyph glyph-name="v" unicode="v" horiz-adv-x="964" 
d="M897 1104l-360 -1104h-91l-372 1104h121l270 -871q16 -49 21 -82l6 -34h4l6 33q6 33 22 83l273 871h100z" />
    <glyph glyph-name="w" unicode="w" horiz-adv-x="1546" 
d="M1466 1104l-319 -1104h-88l-254 885q-14 47 -19 82l-4 34h-4l-5 -34q-5 -35 -19 -82l-260 -885h-88l-320 1104h117l223 -871q14 -53 18 -85l5 -31h4l5 31q5 32 21 85l254 871h101l245 -871q12 -41 19 -78l6 -38h4l7 38q7 38 18 81l229 868h104z" />
    <glyph glyph-name="x" unicode="x" horiz-adv-x="919" 
d="M852 0h-121l-270 496h-4l-275 -496h-114l338 571l-302 533h117l240 -447h4l246 447h106l-305 -520z" />
    <glyph glyph-name="y" unicode="y" horiz-adv-x="964" 
d="M897 1104l-512 -1544h-123l184 440l-372 1104h121l266 -871q16 -49 21 -86l5 -36h5l7 35q7 36 23 87l275 871h100z" />
    <glyph glyph-name="z" unicode="z" horiz-adv-x="831" 
d="M743 0h-675l507 1038h-475v66h623l-504 -1038h524v-66z" />
    <glyph glyph-name="braceleft" unicode="{" horiz-adv-x="722" 
d="M371 20q0 -219 229 -219v-67q-330 0 -330 284v334q0 157 -23.5 202.5t-52 62t-71.5 20.5v68q124 6 135.5 107t11.5 177v332q0 141 85 214t245 73v-70q-229 0 -229 -219v-397q0 -117 -40 -174.5t-116 -75.5v-4q76 -18 116 -74.5t40 -173.5v-400z" />
    <glyph glyph-name="bar" unicode="|" horiz-adv-x="446" 
d="M272 -440h-98v2048h98v-2048z" />
    <glyph glyph-name="braceright" unicode="}" horiz-adv-x="722" 
d="M352 1319q0 219 -229 219v70q160 0 245 -73t85 -214v-332q0 -157 23.5 -202.5t52 -62.5t71.5 -19v-68q-85 -8 -116 -68t-31 -217v-334q0 -284 -330 -284v67q229 0 229 219v400q0 117 40 173t116 75v4q-76 18 -116 75.5t-40 174.5v397z" />
    <glyph glyph-name="asciitilde" unicode="~" horiz-adv-x="1146" 
d="M965 719q-40 -135 -195 -160q-55 -9 -101 13t-90 51q-117 77 -184 67q-106 -15 -162 -133l-51 57q28 73 57 100q56 55 124 63q69 7 117 -15t91 -52q43 -28 87 -51t104 -13t94 51q35 42 51 83z" />
    <glyph glyph-name="nonbreakingspace" unicode="&#xa0;" horiz-adv-x="573" 
 />
    <glyph glyph-name="exclamdown" unicode="&#xa1;" horiz-adv-x="550" 
d="M365 -440h-129l24 968h80zM387 889q0 -35 -25.5 -60.5t-60.5 -25.5t-60.5 25.5t-25.5 60.5t25.5 60.5t60.5 25.5t60.5 -25.5t25.5 -60.5z" />
    <glyph glyph-name="cent" unicode="&#xa2;" 
d="M184 697q0 216 96.5 345t258.5 148l-17 217h92l-12 -215q141 -3 217 -59l-28 -62q-86 47 -177 47q-169 0 -245 -113t-76 -296q0 -293 116.5 -354.5t209.5 -61.5t169 47l31 -68q-70 -55 -221 -59l12 -211h-90l15 213q-160 16 -255.5 141t-95.5 341z" />
    <glyph glyph-name="sterling" unicode="&#xa3;" 
d="M393.5 263.5q-40.5 -113.5 -80.5 -171.5h627v-92h-788q80 98 135 224t55 236t-11.5 156t-17.5 76h-194v68h176q-53 180 -53 282q0 179 112 283.5t289 104.5q94 0 165 -23t105 -47l-34 -72q-107 58 -209.5 58t-210 -51t-107.5 -220t45 -315h277v-68h-262q22 -87 22 -201
t-40.5 -227.5z" />
    <glyph glyph-name="currency" unicode="&#xa4;" 
d="M722 896q-83 83 -200 83t-199.5 -83.5t-82.5 -198.5t80.5 -199t201.5 -84q120 0 201.5 83.5t81.5 199.5t-83 199zM164 694q0 127 78 228l-150 149l55 55l150 -149q96 78 225 78t226 -80l149 151l55 -55l-149 -151q78 -99 78 -226t-78 -223l149 -149l-55 -56l-149 150
q-102 -80 -225.5 -80t-225.5 80l-150 -150l-55 56l150 149q-78 96 -78 223z" />
    <glyph glyph-name="yen" unicode="&#xa5;" 
d="M469 0v602l-373 -20v73l369 -14l-115 223l-254 -18v72l236 -15l-254 506h125l321 -707h4l330 707h109l-254 -506l233 15v-72l-252 18l-112 -223l364 14v-73l-368 20l2 -602h-111z" />
    <glyph glyph-name="brokenbar" unicode="&#xa6;" horiz-adv-x="446" 
d="M272 -440h-98v805h98v-805zM272 803h-98v805h98v-805z" />
    <glyph glyph-name="section" unicode="&#xa7;" 
d="M748.5 576.5q-29.5 63.5 -113.5 136.5l-170 145q-201 -115 -201 -291q0 -96 37 -161.5t119 -133.5l155 -131q91 59 147 125.5t56 156.5t-29.5 153.5zM578 1348q-91 0 -145 -44t-54 -120t35.5 -136t122.5 -130l147 -125q161 -133 179 -217.5t18 -135.5q0 -190 -250 -344
q131 -115 142 -182.5t11 -111.5t-23.5 -94t-90 -108.5t-203.5 -58.5t-238 72l37 74q27 -23 78.5 -44.5t103.5 -21.5q100 0 165 50.5t65 139.5q0 90 -43 139.5t-88 86.5l-205 172q-144 118 -159 207.5t-15 136.5q0 204 248 354q-78 72 -104.5 133.5t-26.5 123.5
q0 116 78 187.5t181 71.5q162 0 249 -67l-33 -64q-91 56 -182 56z" />
    <glyph glyph-name="dieresis" unicode="&#xa8;" horiz-adv-x="348" 
d="M88 1347.5q0 -28.5 -19.5 -49t-48 -20.5t-49 20.5t-20.5 49t20.5 49t49 20.5t48 -20.5t19.5 -49zM395 1347.5q0 -28.5 -20.5 -49t-49 -20.5t-48 20.5t-19.5 49t19.5 49t48 20.5t49 -20.5t20.5 -49z" />
    <glyph glyph-name="copyright" unicode="&#xa9;" horiz-adv-x="1712" 
d="M866 274q-96 0 -174 34t-136 93.5t-92 137t-34 211.5t125 262.5t316 128.5t319 -158l-53 -49q-108 135 -268 135q-159 0 -263 -107.5t-104 -253.5q0 -147 104 -254.5t262 -107.5t267 129l57 -45q-59 -72 -144.5 -114t-181.5 -42zM1509 702.5q0 135.5 -51 254t-140 207.5
t-208 140.5t-254 51.5t-254 -51.5t-208 -140.5t-140 -207.5t-51 -254t51 -254t140 -206.5t208 -139.5t254 -51.5t254 51.5t208 139.5t140 206.5t51 254zM1579 702.5q0 -149.5 -56.5 -280.5t-154.5 -229.5t-230 -154.5t-281.5 -56t-282 56t-230.5 154.5t-154.5 229.5
t-56.5 280.5t56.5 281.5t154.5 230.5t230.5 154.5t282 56t281.5 -56t230 -154.5t154.5 -230.5t56.5 -281.5z" />
    <glyph glyph-name="ordfeminine" unicode="&#xaa;" horiz-adv-x="696" 
d="M371 782q83 0 135 25v315q-184 -24 -235.5 -49.5t-74 -59.5t-22.5 -89q0 -142 197 -142zM360 729q-137 0 -201.5 55.5t-64.5 133.5t33 122.5t104 78t275 55.5v45q0 84 -48 114.5t-130 30.5t-156 -41l-25 53q86 47 197 47q240 0 240 -202v-443q-87 -49 -224 -49z" />
    <glyph glyph-name="guillemotleft" unicode="&#xab;" horiz-adv-x="1019" 
d="M512 303l-57 -45l-312 426l312 426l57 -45l-270 -381zM856 303l-59 -45l-312 426l312 426l59 -45l-274 -381z" />
    <glyph glyph-name="logicalnot" unicode="&#xac;" 
d="M905 313h-88v338h-678v82h766v-420z" />
    <glyph glyph-name="registered" unicode="&#xae;" horiz-adv-x="1712" 
d="M810 1104q-46 0 -93 -19v-340h88q151 0 189 67t38 117t-19.5 84t-50 54t-68.5 28.5t-84 8.5zM802 1167q143 0 225.5 -60t82.5 -177t-77 -176.5t-195 -59.5l305 -418h-88l-301 416h-37v-416h-76v852q80 39 161 39zM1509 702.5q0 135.5 -51 254t-140 207.5t-208 140.5
t-254 51.5t-254 -51.5t-208 -140.5t-140 -207.5t-51 -254t51 -254t140 -206.5t208 -139.5t254 -51.5t254 51.5t208 139.5t140 206.5t51 254zM1579 702.5q0 -149.5 -56.5 -280.5t-154.5 -229.5t-230 -154.5t-281.5 -56t-282 56t-230.5 154.5t-154.5 229.5t-56.5 280.5
t56.5 281.5t154.5 230.5t230.5 154.5t282 56t281.5 -56t230 -154.5t154.5 -230.5t56.5 -281.5z" />
    <glyph glyph-name="macron" unicode="&#xaf;" horiz-adv-x="348" 
d="M444 1294h-540v74h540v-74z" />
    <glyph glyph-name="macron" unicode="&#x2c9;" horiz-adv-x="348" 
d="M444 1294h-540v74h540v-74z" />
    <glyph glyph-name="degree" unicode="&#xb0;" horiz-adv-x="866" 
d="M664 1130.5q0 47.5 -18.5 89.5t-49.5 72.5t-73 49t-89 18.5t-89 -18.5t-73.5 -49t-50 -72.5t-18.5 -89.5t18.5 -89.5t50 -72.5t73.5 -49t89 -18.5t89 18.5t73 49t49.5 72.5t18.5 89.5zM733 1130.5q0 -61.5 -23.5 -117t-64.5 -96t-95 -64.5t-115.5 -24t-117 24t-96.5 64.5
t-64.5 96t-23.5 117t23.5 117t64.5 95t96.5 63.5t117 24t115.5 -24t95 -63.5t64.5 -95t23.5 -117z" />
    <glyph glyph-name="plusminus" unicode="&#xb1;" 
d="M905 150h-766v83h766v-83zM905 748h-342v-377h-84v377h-340v83h340v375h84v-375h342v-83z" />
    <glyph glyph-name="twosuperior" unicode="&#xb2;" horiz-adv-x="737" 
d="M352 1421q166 0 208 -86t42 -136q0 -102 -106 -243l-242 -317h350v-76h-491l315 430q47 66 63.5 107.5t16.5 99.5t-45 104t-129 46t-152 -37l-28 61q84 47 198 47z" />
    <glyph glyph-name="threesuperior" unicode="&#xb3;" horiz-adv-x="737" 
d="M471 1253.5q0 100.5 -158 100.5q-70 0 -135 -37l-26 59q88 47 186 47q144 0 182.5 -71.5t38.5 -116.5q0 -74 -45.5 -125.5t-99.5 -73.5q180 -58 180 -231q0 -115 -77 -184.5t-199 -69.5t-195 47l27 64q75 -41 163 -41t140.5 47.5t52.5 123.5q0 213 -256 199v64
q100 6 160.5 52t60.5 146.5z" />
    <glyph glyph-name="acute" unicode="&#xb4;" horiz-adv-x="348" 
d="M369 1503l-219 -274h-66l145 274q47 29 88.5 30t51.5 -30z" />
    <glyph glyph-name="mu" unicode="&#xb5;" horiz-adv-x="1046" 
d="M778 1104h111v-1036q-68 -39 -147.5 -60.5t-207.5 -21.5t-266 80v-506h-110v1544h110v-969q116 -69 267 -69t243 51v987z" />
    <glyph glyph-name="mu" unicode="&#x3bc;" horiz-adv-x="1046" 
d="M778 1104h111v-1036q-68 -39 -147.5 -60.5t-207.5 -21.5t-266 80v-506h-110v1544h110v-969q116 -69 267 -69t243 51v987z" />
    <glyph glyph-name="paragraph" unicode="&#xb6;" 
d="M956 1341h-61v-1781h-96v1781h-310v-1781h-96v1134q-154 12 -242 108.5t-88 244.5q0 184 121 273t303 89h469v-68z" />
    <glyph glyph-name="periodcentered" unicode="&#xb7;" horiz-adv-x="458" 
d="M317 704.5q0 -36.5 -25.5 -62.5t-62 -26t-62.5 26t-26 62.5t26 62.5t62.5 26t62 -26t25.5 -62.5z" />
    <glyph glyph-name="cedilla" unicode="&#xb8;" horiz-adv-x="348" 
d="M424 -254q0 -88 -132 -123t-368 -14l35 53q243 -15 304 19t61 65q0 51 -68 65.5t-201 4.5l35 51q334 28 334 -121z" />
    <glyph glyph-name="onesuperior" unicode="&#xb9;" horiz-adv-x="737" 
d="M481 1409v-846h-88v713q-97 -36 -223 -45l-6 45q186 22 260 133h57z" />
    <glyph glyph-name="ordmasculine" unicode="&#xba;" horiz-adv-x="696" 
d="M532 1200q0 174 -184 174t-184 -290.5t184 -290.5q153 0 168.5 116.5t15.5 290.5zM618 1080q0 -73 -14 -136t-47 -110.5t-84 -75t-157 -27.5t-172 95t-66 253q0 246 98 297t172 51t126 -26.5t84 -73.5t46 -110.5t14 -136.5z" />
    <glyph glyph-name="guillemotright" unicode="&#xbb;" horiz-adv-x="1019" 
d="M535 684l-312 -426l-59 45l274 381l-274 381l59 45zM877 684l-312 -426l-57 45l270 381l-270 381l57 45z" />
    <glyph glyph-name="onequarter" unicode="&#xbc;" horiz-adv-x="1585" 
d="M1257 264v379q0 39 3 68l2 28h-5l-12 -29q-12 -30 -35 -67l-223 -379h270zM432 563h-86v713q-96 -36 -227 -45l-6 45q92 12 161.5 49t100.5 84h57v-846zM1161 1391l-700 -1411l-76 38l698 1407zM1411 201h-72v-201h-79v201h-351v61l355 584h75v-582h72v-63z" />
    <glyph glyph-name="onehalf" unicode="&#xbd;" horiz-adv-x="1585" 
d="M432 563h-86v713q-96 -36 -227 -45l-6 45q92 12 161.5 49t100.5 84h57v-846zM1128 1391l-700 -1411l-76 38l699 1407zM967 811q85 47 193 47t179.5 -63t71.5 -172t-104 -240l-244 -309h348v-74h-487l315 420q55 72 67.5 119t12.5 86q0 163 -184 163q-73 0 -142 -38z" />
    <glyph glyph-name="threequarters" unicode="&#xbe;" horiz-adv-x="1585" 
d="M1268 264v379q0 35 2 65l2 29h-4l-13 -28q-12 -29 -34 -66l-224 -379h271zM473 1253.5q0 100.5 -158 100.5q-70 0 -135 -37l-28 59q92 47 188 47q144 0 182.5 -71.5t38.5 -116.5q0 -74 -45.5 -125.5t-99.5 -73.5q180 -58 180 -231q0 -115 -77 -184.5t-200 -69.5t-196 47
l27 64q75 -41 164 -41t141.5 47.5t52.5 123.5q0 213 -256 199v64q100 6 160.5 52t60.5 146.5zM1225 1391l-701 -1411l-75 38l698 1407zM1421 201h-71v-201h-80v201h-350v61l354 584h76v-582h71v-63z" />
    <glyph glyph-name="questiondown" unicode="&#xbf;" horiz-adv-x="749" 
d="M719 -381q-112 -74 -271 -74t-257.5 87t-98.5 222t93 222t200 119l23 333h79l27 -372q-195 -45 -252 -134.5t-57 -154.5q0 -104 63.5 -171t191.5 -67t222 56zM532 889q0 -35 -25.5 -60.5t-60 -25.5t-60.5 25.5t-26 60.5t26 60.5t60.5 25.5t60 -25.5t25.5 -60.5z" />
    <glyph glyph-name="Agrave" unicode="&#xc0;" horiz-adv-x="1169" 
d="M815 557l-184 569q-29 88 -37 127l-8 39h-4l-10 -38q-9 -38 -37 -126l-187 -571h467zM1116 0h-121l-155 481h-516l-160 -481h-111l488 1409h92zM387 1819q41 0 88 -29l146 -274h-66l-219 274q10 29 51 29z" />
    <glyph glyph-name="Aacute" unicode="&#xc1;" horiz-adv-x="1169" 
d="M815 557l-184 569q-29 88 -37 127l-8 39h-4l-10 -38q-9 -38 -37 -126l-187 -571h467zM1116 0h-121l-155 481h-516l-160 -481h-111l488 1409h92zM811 1790l-219 -274h-66l146 274q47 29 88 30t51 -30z" />
    <glyph glyph-name="Acircumflex" unicode="&#xc2;" horiz-adv-x="1169" 
d="M815 557l-184 569q-29 88 -37 127l-8 39h-4l-10 -38q-9 -38 -37 -126l-187 -571h467zM1116 0h-121l-155 481h-516l-160 -481h-111l488 1409h92zM587 1776q32 0 58 -27l197 -201l-35 -26l-219 164l-221 -164l-33 26l194 201q27 27 59 27z" />
    <glyph glyph-name="Atilde" unicode="&#xc3;" horiz-adv-x="1169" 
d="M815 557l-184 569q-29 88 -37 127l-8 39h-4l-10 -38q-9 -38 -37 -126l-187 -571h467zM1116 0h-121l-155 481h-516l-160 -481h-111l488 1409h92zM856 1657q-14 -39 -40 -67t-78 -36t-84.5 3.5t-63.5 29t-61.5 30.5t-72.5 9q-60 -6 -94 -84l-47 51q39 100 125 108
q54 5 85.5 -8.5t60 -29.5t57.5 -29.5t70 -8.5t62.5 34t29.5 51z" />
    <glyph glyph-name="Adieresis" unicode="&#xc4;" horiz-adv-x="1169" 
d="M815 557l-184 569q-29 88 -37 127l-8 39h-4l-10 -38q-9 -38 -37 -126l-187 -571h467zM1116 0h-121l-155 481h-516l-160 -481h-111l488 1409h92zM502 1634.5q0 -28.5 -19.5 -49t-48 -20.5t-49 20.5t-20.5 49t20.5 49t49 20.5t48 -20.5t19.5 -49zM809 1634.5
q0 -28.5 -20.5 -49t-49 -20.5t-48 20.5t-19.5 49t19.5 49t48 20.5t49 -20.5t20.5 -49z" />
    <glyph glyph-name="Aring" unicode="&#xc5;" horiz-adv-x="1169" 
d="M815 557l-184 569q-29 88 -37 127l-8 39h-4l-10 -38q-9 -38 -37 -126l-187 -571h467zM688 1672q0 42 -29.5 72t-71.5 30t-72 -30t-30 -72t30 -71.5t72 -29.5t71.5 29.5t29.5 71.5zM1116 0h-121l-155 481h-516l-160 -481h-111l488 1409h92zM743 1671.5q0 -65.5 -45 -110.5
t-110.5 -45t-111.5 45t-46 110.5t46 111.5t111.5 46t110.5 -46t45 -111.5z" />
    <glyph glyph-name="AE" unicode="&#xc6;" horiz-adv-x="1511" 
d="M838 557l-156 635q-12 53 -17 91l-6 38h-4l-9 -38q-9 -38 -32 -93l-256 -633h480zM1470 0h-497l-117 481h-524l-195 -481h-112l587 1409h727v-80h-598l146 -557h450v-80h-430l160 -612h403v-80z" />
    <glyph glyph-name="Ccedilla" unicode="&#xc7;" horiz-adv-x="966" 
d="M793 -254q0 -88 -132.5 -123t-367.5 -14l35 53q244 -15 304 19t60 65q0 51 -68.5 65.5t-199.5 4.5l35 51q334 28 334 -121zM635 -20q-235 0 -374.5 207t-139.5 515t101.5 460.5t196.5 210t201 57.5q169 0 275 -74l-35 -70q-89 62 -205 62q-213 0 -312 -185t-99 -458
q0 -438 148.5 -538.5t261.5 -100.5t206 59l35 -70q-88 -75 -260 -75z" />
    <glyph glyph-name="Egrave" unicode="&#xc8;" horiz-adv-x="886" 
d="M791 0h-621v1409h621v-80h-504v-557h456v-80h-456v-612h504v-80zM311 1819q41 0 88 -29l146 -274h-66l-219 274q10 29 51 29z" />
    <glyph glyph-name="Eacute" unicode="&#xc9;" horiz-adv-x="886" 
d="M791 0h-621v1409h621v-80h-504v-557h456v-80h-456v-612h504v-80zM694 1790l-219 -274h-65l145 274q47 29 88 30t51 -30z" />
    <glyph glyph-name="Ecircumflex" unicode="&#xca;" horiz-adv-x="886" 
d="M791 0h-621v1409h621v-80h-504v-557h456v-80h-456v-612h504v-80zM470 1776q32 0 58 -27l197 -201l-35 -26l-219 164l-221 -164l-33 26l195 201q26 27 58 27z" />
    <glyph glyph-name="Edieresis" unicode="&#xcb;" horiz-adv-x="886" 
d="M791 0h-621v1409h621v-80h-504v-557h456v-80h-456v-612h504v-80zM385 1634.5q0 -28.5 -19.5 -49t-48 -20.5t-49 20.5t-20.5 49t20.5 49t49 20.5t48 -20.5t19.5 -49zM692 1634.5q0 -28.5 -20.5 -49t-49 -20.5t-48 20.5t-19.5 49t19.5 49t48 20.5t49 -20.5t20.5 -49z" />
    <glyph glyph-name="Igrave" unicode="&#xcc;" horiz-adv-x="473" 
d="M297 0h-117v1409h117v-1409zM92 1819q41 0 88 -29l146 -274h-66l-219 274q10 29 51 29z" />
    <glyph glyph-name="Iacute" unicode="&#xcd;" horiz-adv-x="473" 
d="M293 0h-117v1409h117v-1409zM432 1790l-219 -274h-66l146 274q47 29 88 30t51 -30z" />
    <glyph glyph-name="Icircumflex" unicode="&#xce;" horiz-adv-x="473" 
d="M295 0h-117v1409h117v-1409zM237 1776q32 0 58 -27l194 -201l-32 -26l-219 164l-222 -164l-32 26l194 201q27 27 59 27z" />
    <glyph glyph-name="Idieresis" unicode="&#xcf;" horiz-adv-x="473" 
d="M295 0h-117v1409h117v-1409zM152 1634.5q0 -28.5 -19.5 -49t-48.5 -20.5t-49.5 20.5t-20.5 49t20.5 49t49.5 20.5t48.5 -20.5t19.5 -49zM459 1634.5q0 -28.5 -20.5 -49t-49.5 -20.5t-48 20.5t-19 49t19 49t48 20.5t49.5 -20.5t20.5 -49z" />
    <glyph glyph-name="Eth" unicode="&#xd0;" horiz-adv-x="1253" 
d="M555 63q241 0 348 169.5t107 483.5q0 640 -451 640q-124 0 -213 -33v-526h272v-58h-272v-641q80 -35 209 -35zM573 1430q266 0 413 -184.5t147 -526.5t-141 -540.5t-414 -198.5q-119 0 -210.5 21.5t-138.5 51.5v684h-133v60h133v557q122 76 344 76z" />
    <glyph glyph-name="Ntilde" unicode="&#xd1;" horiz-adv-x="1318" 
d="M268 0h-98v1409h149l650 -1122q41 -70 62 -114l22 -44h6l-4 46q-4 46 -4 118v1116h98v-1409h-119l-665 1145q-54 94 -99 184h-4l6 -186v-1143zM932 1657q-32 -89 -118 -103q-52 -8 -85 3.5t-87.5 43t-103.5 26.5q-71 -7 -100 -85l-47 51q39 100 125 108q53 5 85 -8.5
t60.5 -29.5t57.5 -29.5t69 -8.5q61 8 93 85z" />
    <glyph glyph-name="Ograve" unicode="&#xd2;" horiz-adv-x="1218" 
d="M238 707q0 -639 372 -639t371 639q0 434 -130 538.5t-242 104.5q-205 0 -288 -184t-83 -459zM1098 704q0 -151 -27 -283t-86 -230.5t-152.5 -154.5t-284 -56t-309 199t-118.5 526q0 505 178 615t309 110t224.5 -57.5t152.5 -156t86 -230t27 -282.5zM446 1819q41 0 89 -29
l145 -274h-66l-219 274q10 29 51 29z" />
    <glyph glyph-name="Oacute" unicode="&#xd3;" horiz-adv-x="1218" 
d="M238 707q0 -639 372 -639t371 639q0 434 -130 538.5t-242 104.5q-205 0 -288 -184t-83 -459zM1098 704q0 -151 -27 -283t-86 -230.5t-152.5 -154.5t-284 -56t-309 199t-118.5 526q0 505 178 615t309 110t224.5 -57.5t152.5 -156t86 -230t27 -282.5zM809 1790l-219 -274
h-66l146 274q47 29 88 30t51 -30z" />
    <glyph glyph-name="Ocircumflex" unicode="&#xd4;" horiz-adv-x="1218" 
d="M238 707q0 -639 372 -639t371 639q0 434 -130 538.5t-242 104.5q-205 0 -288 -184t-83 -459zM1098 704q0 -151 -27 -283t-86 -230.5t-152.5 -154.5t-284 -56t-309 199t-118.5 526q0 505 178 615t309 110t224.5 -57.5t152.5 -156t86 -230t27 -282.5zM610 1776q32 0 58 -27
l196 -201l-35 -26l-219 164l-221 -164l-33 26l195 201q27 27 59 27z" />
    <glyph glyph-name="Otilde" unicode="&#xd5;" horiz-adv-x="1218" 
d="M238 707q0 -639 372 -639t371 639q0 434 -130 538.5t-242 104.5q-205 0 -288 -184t-83 -459zM1098 704q0 -151 -27 -283t-86 -230.5t-152.5 -154.5t-284 -56t-309 199t-118.5 526q0 505 178 615t309 110t224.5 -57.5t152.5 -156t86 -230t27 -282.5zM870 1657
q-14 -39 -40 -67t-78 -36t-84.5 3.5t-63.5 29t-61.5 30.5t-72.5 9t-63.5 -33.5t-29.5 -50.5l-47 51q16 41 43 72t81 36t85.5 -8.5t60.5 -29.5t57.5 -29.5t69.5 -8.5t62.5 34t29.5 51z" />
    <glyph glyph-name="Odieresis" unicode="&#xd6;" horiz-adv-x="1218" 
d="M238 707q0 -639 372 -639t371 639q0 434 -130 538.5t-242 104.5q-205 0 -288 -184t-83 -459zM1098 704q0 -151 -27 -283t-86 -230.5t-152.5 -154.5t-284 -56t-309 199t-118.5 526q0 505 178 615t309 110t224.5 -57.5t152.5 -156t86 -230t27 -282.5zM524 1634.5
q0 -28.5 -19.5 -49t-48 -20.5t-49 20.5t-20.5 49t20.5 49t49 20.5t48 -20.5t19.5 -49zM831 1634.5q0 -28.5 -20 -49t-49 -20.5t-48.5 20.5t-19.5 49t19.5 49t48.5 20.5t49 -20.5t20 -49z" />
    <glyph glyph-name="multiply" unicode="&#xd7;" 
d="M913 301l-57 -55l-334 377l-329 -375l-62 55l338 381l-338 383l59 55l332 -374l330 374l59 -55l-336 -383z" />
    <glyph glyph-name="Oslash" unicode="&#xd8;" horiz-adv-x="1230" 
d="M614 61q210 0 295.5 182.5t85.5 455t-73 438.5l-586 -918q99 -158 278 -158zM614 1356q-203 0 -290.5 -187t-87.5 -459q0 -273 71 -434l584 920q-96 160 -277 160zM1104 705q0 -510 -179.5 -617.5t-310.5 -107.5q-209 0 -333 151l-105 -164l-47 31l117 182
q-119 191 -119 525q0 505 178 615t309 110q207 0 332 -148l109 170l49 -29l-121 -190q121 -192 121 -528z" />
    <glyph glyph-name="Ugrave" unicode="&#xd9;" horiz-adv-x="1167" 
d="M997 395q0 -174 -110 -296t-302.5 -122t-303.5 121.5t-111 296.5v1014h117v-1014q0 -148 89.5 -235.5t213.5 -87.5t213.5 87.5t89.5 235.5v1014h104v-1014zM457 1819q41 0 88 -29l145 -274h-67l-217 274q10 29 51 29z" />
    <glyph glyph-name="Uacute" unicode="&#xda;" horiz-adv-x="1167" 
d="M997 395q0 -174 -110 -296t-302.5 -122t-303.5 121.5t-111 296.5v1014h117v-1014q0 -148 89.5 -235.5t213.5 -87.5t213.5 87.5t89.5 235.5v1014h104v-1014zM788 1790l-217 -274h-67l145 274q47 29 88 30t51 -30z" />
    <glyph glyph-name="Ucircumflex" unicode="&#xdb;" horiz-adv-x="1167" 
d="M997 395q0 -174 -110 -296t-302.5 -122t-303.5 121.5t-111 296.5v1014h117v-1014q0 -148 89.5 -235.5t213.5 -87.5t213.5 87.5t89.5 235.5v1014h104v-1014zM587 1776q32 0 56 -27l197 -201l-35 -26l-217 164l-221 -164l-35 26l196 201q27 27 59 27z" />
    <glyph glyph-name="Udieresis" unicode="&#xdc;" horiz-adv-x="1167" 
d="M997 395q0 -174 -110 -296t-302.5 -122t-303.5 121.5t-111 296.5v1014h117v-1014q0 -148 89.5 -235.5t213.5 -87.5t213.5 87.5t89.5 235.5v1014h104v-1014zM510 1634.5q0 -28.5 -20.5 -49t-49 -20.5t-49 20.5t-20.5 49t20.5 49t49 20.5t49 -20.5t20.5 -49zM815 1634.5
q0 -28.5 -19.5 -49t-48 -20.5t-49 20.5t-20.5 49t20.5 49t49 20.5t48 -20.5t19.5 -49z" />
    <glyph glyph-name="Yacute" unicode="&#xdd;" horiz-adv-x="991" 
d="M555 0h-115v641l-389 768h129l320 -690h4l330 690h112l-391 -768v-641zM715 1790l-219 -274h-66l145 274q47 29 88.5 30t51.5 -30z" />
    <glyph glyph-name="Thorn" unicode="&#xde;" horiz-adv-x="1034" 
d="M715 1018q-94 94 -248 94q-98 0 -180 -27v-651l67 -6q225 -19 340 72t115 258q0 166 -94 260zM491 1182q97 0 180 -33t139 -89t85 -134t29 -218t-143.5 -254.5t-422.5 -99.5l-71 4v-358h-117v1409h117v-260q107 33 204 33z" />
    <glyph glyph-name="germandbls" unicode="&#xdf;" horiz-adv-x="1073" 
d="M276 1114v-1114h-110v1112q0 341 128 427.5t232 86.5q184 0 273.5 -120.5t89.5 -311.5q0 -107 -31 -197q-115 -12 -178.5 -60t-63.5 -146q0 -58 36.5 -106.5t129.5 -102.5q92 -53 141.5 -120.5t49.5 -149.5q0 -147 -95 -235.5t-229 -88.5q-135 0 -200 41l30 73
q68 -30 161 -30t157.5 59t64.5 150t-29.5 129.5t-61.5 62t-75 49.5q-92 53 -136 115.5t-44 160.5t67.5 163t178.5 90q18 58 18 138q0 173 -53.5 268t-187.5 95q-263 0 -263 -438z" />
    <glyph glyph-name="agrave" unicode="&#xe0;" horiz-adv-x="978" 
d="M501 47q136 0 216 45v557q-269 -36 -388.5 -107.5t-119.5 -246.5q0 -133 78 -190.5t214 -57.5zM100 281q0 125 48.5 199.5t163 140t405.5 94.5v76q0 206 -105.5 229.5t-162.5 23.5q-129 0 -256 -71l-31 71q43 25 123 52.5t163 27.5q170 0 271.5 -78.5t101.5 -257.5v-733
q-126 -75 -332 -75q-205 0 -297 88t-92 213zM340 1532q41 0 88 -29l145 -274h-65l-219 274q10 29 51 29z" />
    <glyph glyph-name="aacute" unicode="&#xe1;" horiz-adv-x="978" 
d="M501 47q136 0 216 45v557q-269 -36 -388.5 -107.5t-119.5 -246.5q0 -133 78 -190.5t214 -57.5zM100 281q0 125 48.5 199.5t163 140t405.5 94.5v76q0 206 -105.5 229.5t-162.5 23.5q-129 0 -256 -71l-31 71q43 25 123 52.5t163 27.5q170 0 271.5 -78.5t101.5 -257.5v-733
q-126 -75 -332 -75q-205 0 -297 88t-92 213zM723 1503l-219 -274h-66l146 274q47 29 88 30t51 -30z" />
    <glyph glyph-name="acircumflex" unicode="&#xe2;" horiz-adv-x="978" 
d="M501 47q136 0 216 45v557q-269 -36 -388.5 -107.5t-119.5 -246.5q0 -133 78 -190.5t214 -57.5zM100 281q0 125 48.5 199.5t163 140t405.5 94.5v76q0 206 -105.5 229.5t-162.5 23.5q-129 0 -256 -71l-31 71q43 25 123 52.5t163 27.5q170 0 271.5 -78.5t101.5 -257.5v-733
q-126 -75 -332 -75q-205 0 -297 88t-92 213zM488 1489q32 0 59 -27l196 -200l-34 -27l-220 164l-221 -164l-32 27l194 200q26 27 58 27z" />
    <glyph glyph-name="atilde" unicode="&#xe3;" horiz-adv-x="978" 
d="M501 47q136 0 216 45v557q-269 -36 -388.5 -107.5t-119.5 -246.5q0 -133 78 -190.5t214 -57.5zM100 281q0 125 48.5 199.5t163 140t405.5 94.5v76q0 206 -105.5 229.5t-162.5 23.5q-129 0 -256 -71l-31 71q43 25 123 52.5t163 27.5q170 0 271.5 -78.5t101.5 -257.5v-733
q-126 -75 -332 -75q-205 0 -297 88t-92 213zM756 1370q-32 -89 -118 -102q-52 -8 -85 3t-87.5 42.5t-103.5 26.5q-70 -7 -100 -85l-47 52q39 99 125 107q53 5 85 -8t60.5 -29.5t57 -30t69.5 -8.5q61 7 93 85z" />
    <glyph glyph-name="adieresis" unicode="&#xe4;" horiz-adv-x="978" 
d="M501 47q136 0 216 45v557q-269 -36 -388.5 -107.5t-119.5 -246.5q0 -133 78 -190.5t214 -57.5zM100 281q0 125 48.5 199.5t163 140t405.5 94.5v76q0 206 -105.5 229.5t-162.5 23.5q-129 0 -256 -71l-31 71q43 25 123 52.5t163 27.5q170 0 271.5 -78.5t101.5 -257.5v-733
q-126 -75 -332 -75q-205 0 -297 88t-92 213zM414 1347.5q0 -28.5 -19.5 -49t-48.5 -20.5t-49.5 20.5t-20.5 49t20.5 49t49.5 20.5t48.5 -20.5t19.5 -49zM721 1347.5q0 -28.5 -20.5 -49t-49 -20.5t-48 20.5t-19.5 49t19.5 49t48 20.5t49 -20.5t20.5 -49z" />
    <glyph glyph-name="aring" unicode="&#xe5;" horiz-adv-x="978" 
d="M501 47q136 0 216 45v557q-269 -36 -388.5 -107.5t-119.5 -246.5q0 -133 78 -190.5t214 -57.5zM598 1385q0 42 -29.5 72t-71.5 30t-72 -30t-30 -72t30 -71.5t72 -29.5t71.5 29.5t29.5 71.5zM100 281q0 125 48.5 199.5t163 140t405.5 94.5v76q0 206 -105.5 229.5
t-162.5 23.5q-129 0 -256 -71l-31 71q43 25 123 52.5t163 27.5q170 0 271.5 -78.5t101.5 -257.5v-733q-126 -75 -332 -75q-205 0 -297 88t-92 213zM653 1384.5q0 -65.5 -45 -110.5t-110.5 -45t-111.5 45t-46 110.5t46 111.5t111.5 46t110.5 -46t45 -111.5z" />
    <glyph glyph-name="ae" unicode="&#xe6;" horiz-adv-x="1619" 
d="M201 291q0 -242 266 -242q101 0 176.5 66t75.5 178v348q-280 -36 -399 -107t-119 -243zM1110 1042q-219 0 -266 -173t-47 -298l602 93q-4 209 -79 293.5t-210 84.5zM455 1124q258 0 327 -221q53 119 145.5 170t184.5 51q180 0 286.5 -121t108.5 -395l-708 -104
q8 -223 112 -332t260 -109t267 62l32 -74q-43 -27 -123.5 -49t-179.5 -22q-258 0 -379 223q-94 -223 -327 -223q-279 0 -320 122.5t-41 208.5t48.5 160t165.5 143.5t405 98.5v78q0 196 -116 226t-171 30q-108 0 -235 -68l-27 70q111 75 285 75z" />
    <glyph glyph-name="ccedilla" unicode="&#xe7;" horiz-adv-x="833" 
d="M680 -254q0 -88 -132 -123t-368 -14l35 53q243 -15 304 19t61 65q0 51 -69 65.5t-200 4.5l35 51q334 28 334 -121zM752 49q-79 -69 -246 -69t-280 155t-113 419t111 417t298 153q128 0 173.5 -30.5t56.5 -38.5l-31 -70q-77 57 -172 57q-324 0 -324 -483
q0 -346 116 -419.5t206 -73.5t172 59z" />
    <glyph glyph-name="egrave" unicode="&#xe8;" horiz-adv-x="1038" 
d="M529 1042q-141 0 -227.5 -115t-86.5 -356l602 93q0 378 -288 378zM113 550q0 284 115.5 429t303.5 145t291 -126.5t103 -389.5l-709 -104q12 -221 108.5 -329.5t258.5 -108.5t268 65l35 -80q-110 -71 -301 -71q-333 0 -403 210t-70 360zM364.5 1532q41.5 0 88.5 -29
l145 -274h-66l-219 274q10 29 51.5 29z" />
    <glyph glyph-name="eacute" unicode="&#xe9;" horiz-adv-x="1038" 
d="M529 1042q-141 0 -227.5 -115t-86.5 -356l602 93q0 378 -288 378zM113 550q0 284 115.5 429t303.5 145t291 -126.5t103 -389.5l-709 -104q12 -221 108.5 -329.5t258.5 -108.5t268 65l35 -80q-110 -71 -301 -71q-333 0 -403 210t-70 360zM748 1503l-220 -274h-65l145 274
q47 29 88.5 30t51.5 -30z" />
    <glyph glyph-name="ecircumflex" unicode="&#xea;" horiz-adv-x="1038" 
d="M529 1042q-141 0 -227.5 -115t-86.5 -356l602 93q0 378 -288 378zM113 550q0 284 115.5 429t303.5 145t291 -126.5t103 -389.5l-709 -104q12 -221 108.5 -329.5t258.5 -108.5t268 65l35 -80q-110 -71 -301 -71q-333 0 -403 210t-70 360zM528 1489q32 0 58 -27l196 -200
l-34 -27l-220 164l-221 -164l-33 27l195 200q27 27 59 27z" />
    <glyph glyph-name="edieresis" unicode="&#xeb;" horiz-adv-x="1038" 
d="M529 1042q-141 0 -227.5 -115t-86.5 -356l602 93q0 378 -288 378zM113 550q0 284 115.5 429t303.5 145t291 -126.5t103 -389.5l-709 -104q12 -221 108.5 -329.5t258.5 -108.5t268 65l35 -80q-110 -71 -301 -71q-333 0 -403 210t-70 360zM449 1347.5q0 -28.5 -19.5 -49
t-48.5 -20.5t-49.5 20.5t-20.5 49t20.5 49t49.5 20.5t48.5 -20.5t19.5 -49zM756 1347.5q0 -28.5 -20.5 -49t-49.5 -20.5t-48.5 20.5t-19.5 49t19.5 49t48.5 20.5t49.5 -20.5t20.5 -49z" />
    <glyph glyph-name="igrave" unicode="&#xec;" horiz-adv-x="454" 
d="M283 0h-111v1104h111v-1104zM78 1532q41 0 88 -29l145 -274h-65l-219 274q10 29 51 29z" />
    <glyph glyph-name="iacute" unicode="&#xed;" horiz-adv-x="454" 
d="M283 0h-111v1104h111v-1104zM428 1503l-219 -274h-66l146 274q47 29 88 30t51 -30z" />
    <glyph glyph-name="icircumflex" unicode="&#xee;" horiz-adv-x="454" 
d="M283 0h-111v1104h111v-1104zM228 1489q32 0 57 -27l196 -200l-35 -27l-217 164l-221 -164l-35 27l197 200q26 27 58 27z" />
    <glyph glyph-name="idieresis" unicode="&#xef;" horiz-adv-x="454" 
d="M285 0h-111v1104h111v-1104zM143 1347.5q0 -28.5 -19.5 -49t-48 -20.5t-49 20.5t-20.5 49t20.5 49t49 20.5t48 -20.5t19.5 -49zM449 1347.5q0 -28.5 -20.5 -49t-49.5 -20.5t-48.5 20.5t-19.5 49t19.5 49t48.5 20.5t49.5 -20.5t20.5 -49z" />
    <glyph glyph-name="eth" unicode="&#xf0;" horiz-adv-x="1024" 
d="M615.5 53q181.5 0 181.5 492q0 254 -84 473q-93 26 -181 26q-166 0 -237.5 -142.5t-71.5 -362.5q0 -336 105.5 -411t287 -75zM907 539q0 -401 -141 -482.5t-248 -81.5q-197 0 -301 150.5t-104 413.5q0 378 146.5 472.5t252.5 94.5t182 -25q-89 215 -164 334l-184 -53
l-29 47l183 57q-59 88 -92 127l86 29q34 -39 96 -127l158 47l28 -47l-158 -51q127 -205 208 -437t81 -468z" />
    <glyph glyph-name="ntilde" unicode="&#xf1;" horiz-adv-x="1046" 
d="M158 1047q146 77 388 77t292.5 -111.5t50.5 -195.5v-817h-111v815q0 125 -69.5 179.5t-198.5 54.5t-242 -45v-1004h-110v1047zM784 1370q-14 -39 -40 -66.5t-78 -35.5t-84.5 3t-63.5 28.5t-61.5 30.5t-72.5 9t-63.5 -33.5t-29.5 -50.5l-47 52q16 41 43 71.5t81 35.5
t85.5 -8t60.5 -29.5t57.5 -30t69.5 -8.5t62.5 34t29.5 51z" />
    <glyph glyph-name="ograve" unicode="&#xf2;" horiz-adv-x="1032" 
d="M809 696.5q0 356.5 -293 356.5t-293 -420.5t102.5 -497t193.5 -76.5t148.5 44t99.5 140.5t42 453zM920 552q0 -258 -98.5 -415t-303.5 -157t-305 155.5t-100 415.5q0 403 146.5 488t256.5 85t186 -44t147 -157t71 -371zM344 1532q41 0 88 -29l146 -274h-66l-219 274
q10 29 51 29z" />
    <glyph glyph-name="oacute" unicode="&#xf3;" horiz-adv-x="1032" 
d="M809 696.5q0 356.5 -293 356.5t-293 -420.5t102.5 -497t193.5 -76.5t148.5 44t99.5 140.5t42 453zM920 552q0 -258 -98.5 -415t-303.5 -157t-305 155.5t-100 415.5q0 403 146.5 488t256.5 85t186 -44t147 -157t71 -371zM735 1503l-219 -274h-65l145 274q47 29 88 30
t51 -30z" />
    <glyph glyph-name="ocircumflex" unicode="&#xf4;" horiz-adv-x="1032" 
d="M809 696.5q0 356.5 -293 356.5t-293 -420.5t102.5 -497t193.5 -76.5t148.5 44t99.5 140.5t42 453zM920 552q0 -258 -98.5 -415t-303.5 -157t-305 155.5t-100 415.5q0 403 146.5 488t256.5 85t186 -44t147 -157t71 -371zM516 1489q32 0 57 -27l197 -200l-35 -27l-219 164
l-221 -164l-33 27l195 200q27 27 59 27z" />
    <glyph glyph-name="otilde" unicode="&#xf5;" horiz-adv-x="1032" 
d="M809 696.5q0 356.5 -293 356.5t-293 -420.5t102.5 -497t193.5 -76.5t148.5 44t99.5 140.5t42 453zM920 552q0 -258 -98.5 -415t-303.5 -157t-305 155.5t-100 415.5q0 403 146.5 488t256.5 85t186 -44t147 -157t71 -371zM780 1370q-14 -39 -40 -66.5t-78 -35.5t-84.5 3
t-63.5 28.5t-61.5 30.5t-72.5 9t-63.5 -33.5t-29.5 -50.5l-47 52q16 41 43 71.5t81 35.5t85.5 -8t60.5 -29.5t57.5 -30t69.5 -8.5t62.5 34t29.5 51z" />
    <glyph glyph-name="odieresis" unicode="&#xf6;" horiz-adv-x="1032" 
d="M809 696.5q0 356.5 -293 356.5t-293 -420.5t102.5 -497t193.5 -76.5t148.5 44t99.5 140.5t42 453zM920 552q0 -258 -98.5 -415t-303.5 -157t-305 155.5t-100 415.5q0 403 146.5 488t256.5 85t186 -44t147 -157t71 -371zM430 1347.5q0 -28.5 -19.5 -49t-48 -20.5t-49 20.5
t-20.5 49t20.5 49t49 20.5t48 -20.5t19.5 -49zM737 1347.5q0 -28.5 -20.5 -49t-49 -20.5t-48 20.5t-19.5 49t19.5 49t48 20.5t49 -20.5t20.5 -49z" />
    <glyph glyph-name="divide" unicode="&#xf7;" 
d="M608 360.5q0 -34.5 -25.5 -60.5t-61.5 -26t-61.5 26t-25.5 60.5t25.5 60t61.5 25.5t61.5 -25.5t25.5 -60zM905 641h-766v84h766v-84zM608 1005.5q0 -34.5 -25.5 -60t-61.5 -25.5t-61.5 25.5t-25.5 60t25.5 60.5t61.5 26t61.5 -26t25.5 -60.5z" />
    <glyph glyph-name="oslash" unicode="&#xf8;" horiz-adv-x="1032" 
d="M815 551q0 225 -63 360l-439 -757q75 -101 205 -101q297 0 297 498zM282.5 913.5q-65.5 -149.5 -65.5 -365.5t66 -343l438 758q-74 100 -203 100q-170 0 -235.5 -149.5zM920 551q0 -401 -147.5 -486t-254.5 -85q-156 0 -252 92l-90 -156l-45 27l98 170q-116 148 -116 438
q0 403 146.5 488t254.5 85q156 0 250 -88l88 152l45 -27l-96 -164q119 -147 119 -446z" />
    <glyph glyph-name="ugrave" unicode="&#xf9;" horiz-adv-x="1024" 
d="M158 324v780h110v-776q0 -117 63 -193t199 -76t226 54v991h110v-1038q-143 -89 -339 -89t-282.5 94.5t-86.5 252.5zM368.5 1532q41.5 0 88.5 -29l145 -274h-65l-220 274q10 29 51.5 29z" />
    <glyph glyph-name="uacute" unicode="&#xfa;" horiz-adv-x="1024" 
d="M158 324v780h110v-776q0 -117 63 -193t199 -76t226 54v991h110v-1038q-143 -89 -339 -89t-282.5 94.5t-86.5 252.5zM735 1503l-219 -274h-65l145 274q47 29 88 30t51 -30z" />
    <glyph glyph-name="ucircumflex" unicode="&#xfb;" horiz-adv-x="1024" 
d="M158 324v780h110v-776q0 -117 63 -193t199 -76t226 54v991h110v-1038q-143 -89 -339 -89t-282.5 94.5t-86.5 252.5zM514 1489q32 0 57 -27l197 -200l-35 -27l-219 164l-221 -164l-33 27l195 200q27 27 59 27z" />
    <glyph glyph-name="udieresis" unicode="&#xfc;" horiz-adv-x="1024" 
d="M158 324v780h110v-776q0 -117 63 -193t199 -76t226 54v991h110v-1038q-143 -89 -339 -89t-282.5 94.5t-86.5 252.5zM428 1347.5q0 -28.5 -20.5 -49t-49 -20.5t-49 20.5t-20.5 49t20.5 49t49 20.5t49 -20.5t20.5 -49zM733 1347.5q0 -28.5 -19.5 -49t-48 -20.5t-49 20.5
t-20.5 49t20.5 49t49 20.5t48 -20.5t19.5 -49z" />
    <glyph glyph-name="yacute" unicode="&#xfd;" horiz-adv-x="964" 
d="M897 1104l-514 -1544h-119l182 440l-372 1104h119l296 -961h5l301 961h102zM709 1503l-220 -274h-65l145 274q47 29 88.5 30t51.5 -30z" />
    <glyph glyph-name="thorn" unicode="&#xfe;" horiz-adv-x="1038" 
d="M646.5 117.5q168.5 99.5 168.5 444.5t-130 418t-232 73t-185 -45v-930q210 -60 378.5 39.5zM470 1120q222 0 339 -149.5t117 -410.5t-134.5 -417.5t-347.5 -156.5q-82 0 -176 26v-452h-110v2048h108v-541q92 53 204 53z" />
    <glyph glyph-name="ydieresis" unicode="&#xff;" horiz-adv-x="964" 
d="M897 1104l-514 -1544h-119l182 440l-372 1104h119l296 -961h5l301 961h102zM406 1347.5q0 -28.5 -19.5 -49t-48.5 -20.5t-49.5 20.5t-20.5 49t20.5 49t49.5 20.5t48.5 -20.5t19.5 -49zM713 1347.5q0 -28.5 -20.5 -49t-49.5 -20.5t-48.5 20.5t-19.5 49t19.5 49t48.5 20.5
t49.5 -20.5t20.5 -49z" />
    <glyph glyph-name="dotlessi" unicode="&#x131;" horiz-adv-x="423" 
d="M266 0h-108v1104h108v-1104z" />
    <glyph glyph-name="Lslash" unicode="&#x141;" horiz-adv-x="831" 
d="M772 0h-571v895l-138 -74v64l138 71v453h116v-403l152 79v-59l-152 -80v-866h455v-80z" />
    <glyph glyph-name="lslash" unicode="&#x142;" horiz-adv-x="559" 
d="M336 0h-111v901l-153 -84v70l153 78v643h111v-598l151 80v-64l-151 -80v-946z" />
    <glyph glyph-name="OE" unicode="&#x152;" horiz-adv-x="1548" 
d="M677 1358q-97 0 -164 -31t-133 -101t-102 -220.5t-36 -273.5t16 -236t62.5 -210.5t130.5 -163t210 -65.5t179 17v1263q-66 21 -163 21zM646 1430q120 0 194 -21h612v-80h-502v-557h459v-80h-459v-610h502v-82h-612q-62 -20 -188 -20q-125 0 -229 57t-171.5 155.5
t-99 230.5t-31.5 281.5t31.5 281.5t99 230.5t171 156t223.5 57.5z" />
    <glyph glyph-name="oe" unicode="&#x153;" horiz-adv-x="1712" 
d="M809 551q0 206 -37 302.5t-96.5 148t-157.5 51.5t-156.5 -51.5t-89 -127t-40 -163.5t-9.5 -220t63 -283t230 -151q293 0 293 494zM1487 655q0 398 -288 398q-136 0 -221 -116t-85 -349zM895 524q35 -463 268.5 -463t286.5 26t78 40l35 -74q-118 -73 -299 -73
q-284 0 -404 284q-92 -285 -344 -284q-204 0 -303.5 155.5t-99.5 415.5q0 403 148.5 488t262.5 85t192.5 -59t139.5 -195q59 137 152.5 195.5t189.5 58.5q195 0 296 -124t105 -400z" />
    <glyph glyph-name="Scaron" unicode="&#x160;" horiz-adv-x="933" 
d="M494 1348q-129 0 -197 -80t-68 -211q0 -160 103.5 -213t181.5 -82t141.5 -78t109.5 -119t46 -170q0 -190 -114 -302.5t-297 -112.5q-184 0 -300 75l37 82q99 -67 246 -67t229 85t82 210t-63 193.5t-181 112.5t-226.5 124t-108.5 239q0 179 104.5 287.5t267.5 108.5
t269 -74l-33 -76q-100 68 -229 68zM715 1749l-197 -201q-26 -26 -58 -26t-57 26l-196 201l35 27l221 -164l217 164z" />
    <glyph glyph-name="scaron" unicode="&#x161;" horiz-adv-x="804" 
d="M433 1047q-103 0 -157.5 -60.5t-54.5 -148.5t58.5 -137t143.5 -79q151 -54 212 -134.5t61 -198.5t-98 -211.5t-255 -93.5t-255 73l33 78q75 -65 205 -65q129 0 194.5 64.5t65.5 162.5t-52.5 148.5t-144.5 84.5q-161 59 -215.5 136.5t-54.5 154.5q0 139 87 222t222 83
q76 0 137.5 -23.5t93.5 -49.5l-32 -72q-91 66 -194 66zM400 1235q-32 0 -58 27l-197 200l35 27l221 -164l217 164l35 -27l-196 -200q-25 -27 -57 -27z" />
    <glyph glyph-name="Ydieresis" unicode="&#x178;" horiz-adv-x="991" 
d="M555 0h-115v641l-389 768h129l320 -690h4l330 690h112l-391 -768v-641zM416 1634.5q0 -28.5 -19.5 -49t-48.5 -20.5t-49 20.5t-20 49t20 49t49 20.5t48.5 -20.5t19.5 -49zM723 1634.5q0 -28.5 -20.5 -49t-49 -20.5t-48 20.5t-19.5 49t19.5 49t48 20.5t49 -20.5t20.5 -49z
" />
    <glyph glyph-name="Zcaron" unicode="&#x17d;" horiz-adv-x="847" 
d="M780 0h-723l557 1329h-532v80h680l-553 -1329h571v-80zM670 1749l-197 -201q-25 -26 -57 -26t-58 26l-196 201l35 27l221 -164l217 164z" />
    <glyph glyph-name="zcaron" unicode="&#x17e;" horiz-adv-x="831" 
d="M743 0h-675l507 1038h-475v66h623l-504 -1038h524v-66zM405 1235q-33 0 -57 27l-196 200l34 27l222 -164l217 164l34 -27l-196 -200q-25 -27 -58 -27z" />
    <glyph glyph-name="florin" unicode="&#x192;" horiz-adv-x="1110" 
d="M124 -371q97 0 153 99.5t96 316.5l137 731h-227v62h237l29 155q36 210 108.5 322t229.5 112q71 0 121 -20l-19 -72q-43 13 -103 13t-101.5 -37t-66 -92.5t-37.5 -118t-24 -111.5l-28 -149h231v-64h-244l-143 -768q-32 -189 -84.5 -279.5t-114 -137t-153.5 -46.5
q-38 0 -90 13l14 80q35 -9 79 -9z" />
    <glyph glyph-name="circumflex" unicode="&#x2c6;" horiz-adv-x="348" 
d="M174 1489q32 0 57 -27l197 -200l-35 -27l-217 164l-221 -164l-35 27l197 200q25 27 57 27z" />
    <glyph glyph-name="caron" unicode="&#x2c7;" horiz-adv-x="348" 
d="M174 1235q-32 0 -57 27l-197 200l35 27l221 -164l217 164l35 -27l-197 -200q-25 -27 -57 -27z" />
    <glyph glyph-name="breve" unicode="&#x2d8;" horiz-adv-x="348" 
d="M-11.5 1302q-64.5 71 -64.5 148l43 20q16 -72 66.5 -117.5t136.5 -45.5t141.5 45t71.5 118l41 -20q0 -78 -66 -148.5t-186 -70.5q-119 0 -183.5 71z" />
    <glyph glyph-name="dotaccent" unicode="&#x2d9;" horiz-adv-x="348" 
d="M248 1413q0 -31 -21.5 -52.5t-52.5 -21.5t-52.5 21.5t-21.5 52.5t21.5 52.5t52.5 21.5t52.5 -21.5t21.5 -52.5z" />
    <glyph glyph-name="ring" unicode="&#x2da;" horiz-adv-x="348" 
d="M274 1385q0 42 -29.5 72t-71.5 30t-71.5 -30t-29.5 -72t29.5 -71.5t71.5 -29.5t71.5 29.5t29.5 71.5zM330 1384.5q0 -65.5 -45 -110.5t-110.5 -45t-112 45t-46.5 110.5t46.5 111.5t112 46t110.5 -46t45 -111.5z" />
    <glyph glyph-name="ogonek" unicode="&#x2db;" horiz-adv-x="348" 
d="M84 -244q0 74 42 128t171 126h104q-125 -70 -159.5 -107.5t-44 -62t-9.5 -51.5q0 -51 72 -62.5t180 25.5l11 -53q-139 -56 -222.5 -41.5t-114 39t-30.5 59.5z" />
    <glyph glyph-name="tilde" unicode="&#x2dc;" horiz-adv-x="348" 
d="M444 1370q-14 -39 -40 -66.5t-78 -35.5t-85.5 3t-64.5 28.5t-61.5 30.5t-60.5 10q-75 -7 -103 -85l-47 52q16 41 43 71.5t81 35.5t85.5 -8t60.5 -29.5t57.5 -30t69.5 -8.5t62.5 34t29.5 51z" />
    <glyph glyph-name="hungarumlaut" unicode="&#x2dd;" horiz-adv-x="348" 
d="M179 1511q41 0 50 -6t7 -20l-252 -260h-66l188 258q32 28 73 28zM489 1485l-251 -260h-66l188 258q29 29 71 29t50 -6.5t8 -20.5z" />
    <glyph glyph-name="Delta" unicode="&#x394;" horiz-adv-x="1144" 
d="M956 82l-335 1044q-20 63 -33 112l-13 48h-4l-14 -48q-14 -48 -35 -110l-344 -1046h778zM1104 0h-1063l487 1409h90z" />
    <glyph glyph-name="Omega" unicode="&#x3a9;" horiz-adv-x="1290" 
d="M1188 0h-449q220 208 264 441t44 347t-20.5 217t-67 180t-124 121t-240 44t-257 -154.5t-94.5 -392.5q0 -237 79 -447.5t228 -355.5h-449v80h289q-106 114 -184 313.5t-78 366.5t33 288t97.5 205t160.5 130.5t285 46.5t323.5 -172t134.5 -478q0 -180 -73.5 -375.5
t-184.5 -324.5h283v-80z" />
    <glyph glyph-name="pi" unicode="&#x3c0;" horiz-adv-x="1277" 
d="M895 291v735h-512v-1026h-111v1026h-151v78h1036v-78h-151v-737q0 -105 27.5 -159t123.5 -54v-76q-172 -11 -217 72.5t-45 218.5z" />
    <glyph glyph-name="endash" unicode="&#x2013;" horiz-adv-x="798" 
d="M799 641h-799v92h799v-92z" />
    <glyph glyph-name="emdash" unicode="&#x2014;" horiz-adv-x="1597" 
d="M1597 647h-1597v80h1597v-80z" />
    <glyph glyph-name="quoteleft" unicode="&#x2018;" horiz-adv-x="493" 
d="M187 1114q-39 0 -49.5 10.5t-14.5 20.5l219 463h59l-153 -463q-22 -31 -61 -31z" />
    <glyph glyph-name="quoteright" unicode="&#x2019;" horiz-adv-x="493" 
d="M246 1583q27 31 70 31t55 -31l-219 -463h-60z" />
    <glyph glyph-name="quotesinglbase" unicode="&#x201a;" horiz-adv-x="493" 
d="M246 117q30 30 72 30t53 -30l-219 -463h-60z" />
    <glyph glyph-name="quotedblleft" unicode="&#x201c;" horiz-adv-x="808" 
d="M187 1114q-39 0 -49.5 10.5t-14.5 20.5l219 463h59l-153 -463q-22 -31 -61 -31zM502 1114q-39 0 -49.5 10.5t-14.5 20.5l219 463h60l-154 -463q-22 -31 -61 -31z" />
    <glyph glyph-name="quotedblright" unicode="&#x201d;" horiz-adv-x="808" 
d="M246 1583q27 31 70 31t55 -31l-219 -463h-60zM561 1583q27 31 70 31t55 -31l-219 -463h-59z" />
    <glyph glyph-name="quotedblbase" unicode="&#x201e;" horiz-adv-x="808" 
d="M246 117q30 30 72 30t53 -30l-219 -463h-60zM561 117q29 30 71 30t54 -30l-219 -463h-59z" />
    <glyph glyph-name="dagger" unicode="&#x2020;" horiz-adv-x="1081" 
d="M969 1006l-389 12l16 -1458h-115l17 1458l-385 -12v104l385 -12l-17 510h115l-16 -510l389 12v-104z" />
    <glyph glyph-name="daggerdbl" unicode="&#x2021;" horiz-adv-x="1081" 
d="M969 117l-387 12l14 -569h-113l17 569l-387 -12v104l387 -12l-4 397l4 414l-387 -12v104l387 -12l-17 508h113l-14 -508l387 12v-104l-387 12l4 -412l-4 -399l387 12v-104z" />
    <glyph glyph-name="bullet" unicode="&#x2022;" horiz-adv-x="593" 
d="M440 723q0 -59 -42 -101t-101 -42t-101 42t-42 101t42 101t101 42t101 -42t42 -101z" />
    <glyph glyph-name="ellipsis" unicode="&#x2026;" horiz-adv-x="1622" 
d="M356 81q0 -36 -25.5 -61.5t-60 -25.5t-60.5 25.5t-26 61.5t26 61.5t60.5 25.5t60 -25.5t25.5 -61.5zM897 81q0 -36 -25.5 -61.5t-60.5 -25.5t-60.5 25.5t-25.5 61.5t25.5 61.5t60.5 25.5t60.5 -25.5t25.5 -61.5zM1438 81q0 -36 -26 -61.5t-60.5 -25.5t-60 25.5
t-25.5 61.5t25.5 61.5t60 25.5t60.5 -25.5t26 -61.5z" />
    <glyph glyph-name="perthousand" unicode="&#x2030;" horiz-adv-x="2398" 
d="M586 955q0 60 -4 134t-21.5 138.5t-52.5 108.5t-96.5 44t-96 -44t-57 -122.5t-22.5 -198.5t4 -192.5t22.5 -136t53 -106.5t96 -43t96.5 43t52.5 106.5t21.5 136t4 132.5zM1479 458.5q0 59.5 -4.5 133.5t-21.5 138.5t-53 108.5t-97.5 44t-96.5 -44t-52 -108.5
t-21.5 -138.5t-4.5 -133.5t5.5 -133t23 -137t51 -106.5t95 -43t96.5 43t52 106.5t22.5 137t5.5 133zM2163 458.5q0 59.5 -4.5 133.5t-21.5 138.5t-53 108.5t-97.5 44t-96.5 -44t-52 -108.5t-21.5 -138.5t-4.5 -133.5t4.5 -133t21.5 -137t52 -106.5t96.5 -43t96.5 43
t52 106.5t22.5 137t5.5 133zM412 473q-258 0 -258 479.5t258 479.5t258 -402.5t-89 -479.5t-169 -77zM1124 1401l-475 -1415l-65 22l477 1413zM1561 458q0 -481 -257 -481t-257 482q0 205 36.5 297t87 136t131.5 44t132 -44t89 -140t38 -294zM1987 -23q-258 -1 -258 479
t258 480q144 0 201 -139t57 -338q0 -327 -89.5 -404.5t-168.5 -77.5z" />
    <glyph glyph-name="guilsinglleft" unicode="&#x2039;" horiz-adv-x="675" 
d="M512 303l-57 -45l-312 426l312 426l57 -45l-270 -381z" />
    <glyph glyph-name="guilsinglright" unicode="&#x203a;" horiz-adv-x="675" 
d="M532 684l-311 -426l-57 45l270 381l-270 381l57 45z" />
    <glyph glyph-name="trademark" unicode="&#x2122;" horiz-adv-x="1603" 
d="M586 1350h-203v-656h-76v656h-205v59h484v-59zM1442 694h-74l-78 664l-205 -664h-77l-205 664l-74 -664h-78l86 715h123l189 -651l186 651h121z" />
    <glyph glyph-name="partialdiff" unicode="&#x2202;" 
d="M219 328q0 -118 55.5 -191.5t162.5 -73.5q196 0 288 184.5t92 479.5q-268 86 -433 -34t-165 -365zM922 700q0 -314 -125 -516t-365 -202q-158 0 -238.5 98.5t-80.5 228.5t47 237t136 180t219 97.5t296 -28.5q-15 202 -138 349t-282 204l27 71q327 -116 415.5 -340.5
t88.5 -378.5z" />
    <glyph glyph-name="product" unicode="&#x220f;" horiz-adv-x="1712" 
d="M972.5 744.5q86.5 45.5 86.5 156.5t-60.5 155t-133.5 44t-122 -19v-366q143 -16 229.5 29.5zM864 1165q175 0 225 -94t50 -169q0 -145 -109.5 -209t-286.5 -40v-407h-77v880q85 39 198 39zM1509 702.5q0 135.5 -51 254t-140 207.5t-208 140.5t-254 51.5t-254 -51.5
t-208 -140.5t-140 -207.5t-51 -254t51 -254t140 -206.5t208 -139.5t254 -51.5t254 51.5t208 139.5t140 206.5t51 254zM1579 702.5q0 -149.5 -56.5 -280.5t-154.5 -229.5t-230 -154.5t-281.5 -56t-282 56t-230.5 154.5t-154.5 229.5t-56.5 280.5t56.5 281.5t154.5 230.5
t230.5 154.5t282 56t281.5 -56t230 -154.5t154.5 -230.5t56.5 -281.5z" />
    <glyph glyph-name="summation" unicode="&#x2211;" 
d="M940 -440h-811l489 1005l-491 844h795v-84h-627l438 -739l-446 -930h653v-96z" />
    <glyph glyph-name="minus" unicode="&#x2212;" 
d="M139 725h766v-82l-766 -2v84z" />
    <glyph glyph-name="fraction" unicode="&#x2215;" horiz-adv-x="305" 
d="M541 1391l-701 -1411l-76 38l699 1407z" />
    <glyph glyph-name="radical" unicode="&#x221a;" 
d="M61 973v57h267l233 -891h4l307 1469h99l-355 -1608h-104l-285 973h-166z" />
    <glyph glyph-name="infinity" unicode="&#x221e;" horiz-adv-x="1761" 
d="M480 942q-50 0 -94 -18.5t-78 -52t-52 -78.5t-18 -124.5t70 -149.5t171 -70t180 58t175 187q-112 133 -167 175t-96 57.5t-91 15.5zM1524 694.5q0 53.5 -19.5 98.5t-52.5 78.5t-78 52t-121 18.5t-147.5 -53t-175.5 -191q114 -142 162.5 -179.5t91.5 -53.5t94 -16t96 18
t79 52t52.5 78t18.5 97.5zM1505 463q-92 -92 -219 -92t-215.5 61.5t-193.5 204.5q-108 -146 -192 -206t-211 -60t-218.5 93.5t-91.5 231.5q0 137 91.5 230.5t237.5 93.5t239 -97.5t153 -166.5q116 148 172.5 190.5t104.5 58t116 15.5t126 -24.5t125.5 -93.5t67.5 -208
t-92 -231z" />
    <glyph glyph-name="integral" unicode="&#x222b;" 
d="M807 1532q-153 0 -191 -84t-38 -148v-1415q0 -145 -92 -235t-248 -90v75q90 0 161.5 56t71.5 174v1417q0 141 87 233.5t249 92.5v-76z" />
    <glyph glyph-name="approxequal" unicode="&#x2248;" 
d="M690 479q114 0 215 101v-78q-27 -35 -80 -70t-119 -35t-107.5 22.5t-83.5 49.5t-86 49.5t-95 22.5q-111 0 -195 -92v79q83 95 195 95q51 0 95 -22.5t87 -49.5t85 -49.5t89 -22.5zM690 819q114 0 215 101v-78q-27 -35 -80 -70t-119 -35t-107.5 22.5t-83.5 49.5t-86 49.5
t-95 22.5q-113 0 -195 -93v80q83 95 195 95q51 0 95 -22.5t87 -49.5t85 -49.5t89 -22.5z" />
    <glyph glyph-name="notequal" unicode="&#x2260;" 
d="M905 479h-471l-147 -237l-58 39l125 196h-215v84h267l155 248h-422v84h473l140 221l57 -37l-115 -184h211v-82h-262l-158 -250h420v-82z" />
    <glyph glyph-name="lessequal" unicode="&#x2264;" 
d="M905 242h-766v82h766v-82zM905 471l-766 303v82l766 305v-92l-669 -254l669 -254v-90z" />
    <glyph glyph-name="greaterequal" unicode="&#x2265;" 
d="M139 324h766v-84l-766 2v82zM905 776l-766 -305v90l670 254l-670 254v92l766 -303v-82z" />
    <glyph glyph-name="lozenge" unicode="&#x25ca;" horiz-adv-x="1320" 
d="M1096 686l-449 569l-420 -534l449 -567zM1208 705l-546 -695l-549 695l549 694z" />
    <glyph glyph-name="fi" unicode="&#xfb01;" horiz-adv-x="997" 
d="M328 1298v-194h204v-64h-204v-1040h-111v1038h-129v66h129v176q0 141 78 234.5t237 93.5v-70q-204 -20 -204 -240zM825 0h-110v1104h110v-1104zM840 1413q0 -29 -20.5 -49.5t-49.5 -20.5t-49.5 20.5t-20.5 49.5t20.5 49.5t49.5 20.5t49.5 -20.5t20.5 -49.5z" />
    <glyph glyph-name="fl" unicode="&#xfb02;" horiz-adv-x="1011" 
d="M328 1298v-194h204v-64h-204v-1040h-111v1038h-129v66h129v176q0 141 78 234.5t237 93.5v-70q-204 -20 -204 -240zM838 0h-111v1608h111v-1608z" />
  </font>
</defs>
</svg>
