<?xml version="1.0" standalone="no"?>
<!DOCTYPE svg PUBLIC "-//W3C//DTD SVG 1.1//EN" "http://www.w3.org/Graphics/SVG/1.1/DTD/svg11.dtd" >
<svg xmlns="http://www.w3.org/2000/svg">
<metadata>
Created by FontPrep 20130207 at Mon Apr  8 14:43:49 2019
 By Mauricio Duran
Copyright Hans Reichel, 1996. Published by FontShop International FontFont release 17
</metadata>
<defs>
<font id="4d4507f5a5faa52210eb0f4fdcd588e7" horiz-adv-x='1024' >
  <font-face 
    font-family="Dax-Regular"
    font-weight="500"
    font-stretch="normal"
    units-per-em="2048"
    panose-1="0 0 0 0 0 0 0 0 0 0"
    ascent="1608"
    descent="-440"
    x-height="1104"
    cap-height="1409"
    bbox="-229 -465 2308 1841"
    underline-thickness="102"
    underline-position="-153"
    unicode-range="U+0020-FB02"
  />
<missing-glyph horiz-adv-x="2048" 
 />
    <glyph glyph-name=".notdef" horiz-adv-x="2048" 
 />
    <glyph glyph-name=".null" horiz-adv-x="0" 
 />
    <glyph glyph-name="nonmarkingreturn" horiz-adv-x="681" 
 />
    <glyph glyph-name="space" unicode=" " horiz-adv-x="565" 
 />
    <glyph glyph-name="exclam" unicode="!" horiz-adv-x="593" 
d="M320 -10q-48 0 -82 35t-35 83q0 48 35 82q34 34 82 35q48 -1 83 -35t35 -82t-35 -83t-83 -35zM426 1409l-39 -946h-135l-39 946h213z" />
    <glyph glyph-name="quotedbl" unicode="&#x22;" horiz-adv-x="786" 
d="M228 1427q56 0 87 -43l-41 -512h-92l-41 512q31 43 87 43zM559 1427q55 0 86 -43l-41 -512h-94l-41 512q35 43 90 43z" />
    <glyph glyph-name="numbersign" unicode="#" 
d="M688 883h-242l-57 -320h240zM1024 883h-229l-60 -320h215v-94h-231l-80 -469h-107l82 469h-239l-86 -469h-105l84 469h-211v94h228l57 320h-211v92h227l76 434h107l-76 -434h240l75 434h107l-76 -434h213v-92z" />
    <glyph glyph-name="dollar" unicode="$" 
d="M903 397q0 -163 -98 -275t-260 -134l18 -250h-119l19 246q-193 2 -303 75l47 125q105 -68 235 -68t204 76q74 74 73 182t-59 172t-191 116q-297 115 -297 372q0 150 93 260t251 129l-18 236h114l-18 -234q156 -6 256 -73l-43 -109q-98 61 -215 61t-180 -68
q-64 -69 -64 -178q0 -108 60 -164t178 -103q317 -126 317 -394z" />
    <glyph glyph-name="percent" unicode="%" horiz-adv-x="1748" 
d="M264 952q0 -282 71 -355q34 -36 83 -36q151 0 153 395t-153 396q-154 0 -154 -400zM1332 72q152 0 155 394q2 394 -155 394t-152 -397q0 -391 152 -391zM692 950q0 -481 -275 -481t-276 481q0 481 277 482q274 -1 274 -482zM1159 1397l-479 -1413l-94 28l479 1411z
M1057 458q-1 482 275 482t276 -481t-277 -482q-274 -1 -274 481z" />
    <glyph glyph-name="ampersand" unicode="&#x26;" horiz-adv-x="1267" 
d="M303 406q0 -152 85 -230q86 -78 232 -78t209 31v672q-285 -68 -405 -156q-120 -87 -121 -239zM109 383q0 152 98 258t268 158v4q-131 35 -204 115t-73 206t105 216q103 90 277 90t290 -74l-51 -105q-98 55 -210 55t-171 -54t-59 -153t77 -161t191 -61q231 0 535 159
l51 -114q-113 -53 -227 -82v-781q-121 -79 -368 -79t-388 108t-141 295z" />
    <glyph glyph-name="quotesingle" unicode="'" horiz-adv-x="458" 
d="M229 1427q57 0 88 -43l-43 -512h-92l-41 512q31 43 88 43z" />
    <glyph glyph-name="parenleft" unicode="(" horiz-adv-x="743" 
d="M139 586q0 260 108 511t339 535l88 -53q-340 -475 -340 -993t340 -996l-88 -53q-231 285 -339 537t-108 512z" />
    <glyph glyph-name="parenright" unicode=")" horiz-adv-x="743" 
d="M604 586q0 -260 -108 -512t-338 -537l-88 53q340 478 340 996t-340 993l88 53q230 -286 338 -536t108 -510z" />
    <glyph glyph-name="asterisk" unicode="*" horiz-adv-x="864" 
d="M358 1105q0 -36 -26 -62q-26 -25 -60 -25t-60 26t-26 61t26 61t60 26t60 -26t26 -61zM279 1381q0 -35 -26 -61q-27 -26 -61 -26t-60 26t-26 62t26 61t61 25t61 -26t25 -61zM590 1190q34 0 60 -26t26 -61q0 -36 -26 -61q-26 -24 -60 -24t-61 24q-26 24 -25 62q0 38 26 62
t60 24zM358 1304q0 32 22 54t52 20q30 0 52 -21t22 -53t-22 -54t-52 -22t-52 22t-22 54zM518 1553q0 -35 -26 -61t-60 -26t-60 26t-26 62t26 61t60 25t61 -25q25 -26 25 -62zM758 1380q0 -36 -26 -62t-60 -25t-61 26q-25 25 -25 61t25 62q26 24 61 24q34 0 60 -24t26 -62z
" />
    <glyph glyph-name="plus" unicode="+" 
d="M934 623h-332v-359h-125v359h-330v122h330v359h125v-359h332v-122z" />
    <glyph glyph-name="comma" unicode="," horiz-adv-x="536" 
d="M316 211q72 0 81 -51l-266 -506h-106l174 506q45 51 117 51z" />
    <glyph glyph-name="hyphen" unicode="-" horiz-adv-x="704" 
d="M584 618h-463v144h463v-144z" />
    <glyph glyph-name="period" unicode="." horiz-adv-x="512" 
d="M373 111q0 -49 -34 -84t-83 -35t-84 35t-35 84t35 83t84 34t83 -34t34 -83z" />
    <glyph glyph-name="slash" unicode="/" horiz-adv-x="1153" 
d="M1120 1573l-970 -2038l-117 57l971 2038z" />
    <glyph glyph-name="zero" unicode="0" 
d="M795 711q0 608 -254 608t-254 -608t254 -609q254 1 254 609zM969 705q1 -131 -19 -249q-79 -479 -409 -476q-328 0 -409 476q-19 118 -19 249q0 273 84 479q45 114 133 180t211 66q331 0 408 -477q20 -117 20 -248z" />
    <glyph glyph-name="one" unicode="1" 
d="M739 0h-184v1184q-57 -35 -161 -64t-199 -37l-21 109q330 43 440 217h125v-1409z" />
    <glyph glyph-name="two" unicode="2" 
d="M922 0h-840l498 707q133 190 133 333q0 254 -291 254q-137 0 -252 -57l-47 117q145 76 347 76t318 -104t117 -267q0 -164 -178 -402l-377 -507h572v-150z" />
    <glyph glyph-name="three" unicode="3" 
d="M922 408q0 -193 -134 -311q-134 -117 -348 -117q-216 0 -348 73l51 123q104 -61 260 -61t240 78t84 215q0 76 -29 134t-70 89q-108 80 -304 76v102q162 12 259 87t97 189q0 113 -69 163t-173 50q-162 0 -264 -55l-47 113q131 74 319 74t303 -86q114 -86 113 -234
q0 -178 -183 -283q-40 -23 -79 -36v-5q322 -85 322 -378z" />
    <glyph glyph-name="four" unicode="4" 
d="M688 428v592l4 205h-4q-41 -88 -104 -197l-346 -600h450zM969 322h-115v-322h-166v322h-575v116l569 971h172v-981h115v-106z" />
    <glyph glyph-name="five" unicode="5" 
d="M938 408q0 -178 -134 -304t-347 -124q-213 0 -344 73l47 123q119 -63 259 -63q140 -1 233 77t93 216q0 178 -133 264t-430 39l60 700h657v-149h-528l-33 -433q292 33 446 -85t154 -334z" />
    <glyph glyph-name="six" unicode="6" 
d="M799 420q0 322 -307 321q-109 0 -187 -36q-18 -92 -18 -197q-1 -188 65 -297t195 -109t191 92t61 226zM522 842q197 0 323 -110t126 -304q0 -196 -111 -322q-110 -126 -316 -126t-316 143t-109 389q0 180 54 333t133 249t178 170q158 118 319 157l47 -121
q-391 -129 -522 -495q94 37 194 37z" />
    <glyph glyph-name="seven" unicode="7" 
d="M131 1260v149h873l-189 -440q-264 -623 -356 -969h-226l551 1260h-653z" />
    <glyph glyph-name="eight" unicode="8" 
d="M801 334q0 102 -53 175t-211 165q-156 -90 -209 -162q-54 -72 -54 -176t77 -171t190 -67t187 67t73 169zM774 1099q0 95 -64 158q-65 63 -167 63q-101 0 -165 -62t-64 -158t48 -156q49 -60 183 -141q131 73 180 137t49 159zM969 334q0 -156 -121 -255t-303 -99t-307 94
t-125 258q0 121 70 213q71 92 239 190q-143 84 -204 166q-60 82 -60 193q0 147 110 241q111 95 272 95q160 0 272 -94t112 -240q0 -109 -60 -191t-205 -164q168 -98 239 -193t71 -214z" />
    <glyph glyph-name="nine" unicode="9" 
d="M793 897q0 188 -66 298t-195 110q-129 1 -190 -93t-61 -227q0 -322 307 -321q104 0 188 36q17 84 17 197zM963 889q-1 -180 -55 -333t-133 -249t-178 -170q-157 -117 -318 -157l-48 118q393 133 523 498q-94 -37 -195 -37q-197 0 -323 110t-125 305q0 195 111 321
q112 126 318 126t314 -142t109 -390z" />
    <glyph glyph-name="colon" unicode=":" horiz-adv-x="512" 
d="M373 111q0 -49 -34 -84t-83 -35t-84 35t-35 84t35 83t84 34t83 -34t34 -83zM373 739q0 -49 -34 -83t-83 -34t-84 34t-35 83t35 84t84 35t83 -35t34 -84z" />
    <glyph glyph-name="semicolon" unicode=";" horiz-adv-x="536" 
d="M318 215q72 0 79 -55l-266 -506h-106l174 506q47 55 119 55zM397 739q0 -49 -35 -83q-34 -34 -82 -34t-83 34t-35 83t35 84t83 35t82 -35t35 -84z" />
    <glyph glyph-name="less" unicode="&#x3c;" 
d="M934 287l-787 344v119l787 346v-135l-639 -271l639 -270v-133z" />
    <glyph glyph-name="equal" unicode="=" 
d="M934 440h-787v123h787v-123zM934 803h-787v123h787v-123z" />
    <glyph glyph-name="greater" unicode="&#x3e;" 
d="M934 631l-787 -344v133l639 270l-639 271v135l787 -346v-119z" />
    <glyph glyph-name="question" unicode="?" horiz-adv-x="806" 
d="M512 109q0 -49 -35 -84t-83 -35t-83 35t-35 84t35 84t83 35t83 -36q35 -34 35 -83zM778 1108q0 -138 -94 -227q-94 -88 -201 -119l-22 -299h-135l-29 354q115 27 204 95t89 167q0 101 -60 159t-178 58q-117 0 -215 -53l-51 107q125 76 301 76q175 0 283 -90t108 -228z
" />
    <glyph glyph-name="at" unicode="@" horiz-adv-x="1781" 
d="M900 932q-87 0 -161 -87q-73 -87 -105 -191t-32 -200q0 -95 46 -165t138 -70t167 85q75 84 108 188t35 208t-54 168t-142 64zM1645 846q0 -218 -114 -454q-54 -112 -143 -186q-88 -74 -176 -73q-88 0 -124 43t-39 146q-115 -186 -318 -187q-119 0 -180 92q-61 91 -61 217
t46 252t144 222t219 96q174 0 238 -193l30 158h103l-70 -324q-51 -227 -51 -304t18 -107t66 -29q82 1 160 107t121 252q44 146 45 272q1 236 -141 376t-372 140t-422 -130t-296 -338t-105 -441q-1 -315 183 -487t489 -171q221 0 375 73t299 228l45 -53q-146 -164 -314 -242
t-405 -77q-348 0 -554 191t-206 540q0 258 122 483t334 359q212 135 469 135t421 -158t164 -428z" />
    <glyph glyph-name="A" unicode="A" horiz-adv-x="1198" 
d="M801 535l-164 534q-34 103 -41 170h-4q-8 -59 -43 -170l-168 -534h420zM1159 0h-194l-134 422h-483l-137 -422h-172l477 1409h168z" />
    <glyph glyph-name="B" unicode="B" horiz-adv-x="1150" 
d="M550 100q136 0 224 67t88 223t-102 230q-102 75 -330 74h-94v-561q78 -33 214 -33zM817 1063q0 258 -295 258q-100 0 -186 -31v-502h92q213 0 301 66t88 209zM1053 381q1 -203 -139 -302t-376 -99t-380 77v1295q135 78 363 78t353 -98t125 -246q1 -148 -81 -232
t-193 -104v-5q119 -23 223 -120t105 -244z" />
    <glyph glyph-name="C" unicode="C" horiz-adv-x="978" 
d="M111 702q0 310 141 519t387 209q168 0 274 -78l-45 -111q-90 55 -208 55t-202 -88q-151 -156 -151 -503q0 -250 90 -417t273 -167q106 0 196 55l49 -119q-102 -78 -276 -77q-246 0 -387 206t-141 516z" />
    <glyph glyph-name="D" unicode="D" horiz-adv-x="1218" 
d="M913 721q0 588 -395 588q-104 0 -174 -29v-1141q66 -27 176 -26q209 1 301 151t92 457zM522 1430q286 0 436 -188t150 -526q0 -337 -144 -537t-434 -199q-244 0 -372 75v1297q141 78 364 78z" />
    <glyph glyph-name="E" unicode="E" horiz-adv-x="905" 
d="M811 0h-653v1409h653v-127h-465v-491h418v-125h-418v-539h465v-127z" />
    <glyph glyph-name="F" unicode="F" horiz-adv-x="888" 
d="M809 1282h-463v-491h416v-125h-416v-666h-188v1409h651v-127z" />
    <glyph glyph-name="G" unicode="G" horiz-adv-x="1204" 
d="M723 1296q-201 0 -309 -148t-109 -438q0 -290 112 -446q112 -154 283 -153q119 0 177 32v529h-240v119h422v-734q-137 -78 -357 -77q-260 0 -426 188t-166 536t170 537q169 188 422 189q213 0 330 -74l-55 -117q-94 57 -254 57z" />
    <glyph glyph-name="H" unicode="H" horiz-adv-x="1222" 
d="M1065 0h-188v666h-531v-666h-188v1409h188v-618h531v618h188v-1409z" />
    <glyph glyph-name="I" unicode="I" horiz-adv-x="518" 
d="M352 0h-188v1409h188v-1409z" />
    <glyph glyph-name="J" unicode="J" horiz-adv-x="518" 
d="M352 57q0 -217 -127 -349t-315 -159v134q110 29 182 123t72 241v1362h188v-1352z" />
    <glyph glyph-name="K" unicode="K" horiz-adv-x="1062" 
d="M350 729v-729h-186v1409h186v-653h4l453 653h197l-482 -655l504 -754h-213l-459 729h-4z" />
    <glyph glyph-name="L" unicode="L" horiz-adv-x="841" 
d="M776 0h-612v1409h188v-1282h424v-127z" />
    <glyph glyph-name="M" unicode="M" horiz-adv-x="1601" 
d="M1493 0h-178l-109 1055l-10 166h-4q-14 -78 -39 -166q-291 -1030 -299 -1055h-125l-295 1057l-39 164h-4q-2 -80 -10 -164q-109 -1036 -111 -1057h-161l167 1409h199l283 -1018l37 -160h4q10 66 37 158l290 1020h199z" />
    <glyph glyph-name="N" unicode="N" horiz-adv-x="1325" 
d="M1167 0h-163l-601 1028l-90 170h-4q6 -86 6 -174v-1024h-157v1409h198l576 -989l80 -150h4q-6 68 -6 156v983h157v-1409z" />
    <glyph glyph-name="O" unicode="O" horiz-adv-x="1239" 
d="M938 711q0 240 -62 402q-34 89 -99 140t-157 51t-157 -50q-162 -126 -162 -543q1 -592 319 -592t318 592zM1128 705q0 -211 -49 -369t-166 -257t-292 -99q-260 0 -385 200t-125 525q0 209 49 367t167 257q118 100 294 101q259 0 383 -200t124 -525z" />
    <glyph glyph-name="P" unicode="P" horiz-adv-x="1075" 
d="M809 1006q0 156 -74 234t-233 77q-98 0 -160 -27v-590l61 -6q406 -38 406 312zM522 1430q228 0 348 -116t121 -315q0 -200 -146 -324t-439 -95l-64 6v-586h-184v1352q136 78 364 78z" />
    <glyph glyph-name="Q" unicode="Q" horiz-adv-x="1239" 
d="M621 1305q-319 0 -319 -591t318 -591q320 0 320 591t-319 591zM1128 707q0 -483 -268 -664l244 -307l-141 -125l-213 391q-66 -16 -129 -16q-176 0 -294 99t-167 256t-49 366t49 367t167 256q119 100 273 100q288 1 408 -205t120 -518z" />
    <glyph glyph-name="R" unicode="R" horiz-adv-x="1110" 
d="M809 1004q0 162 -73 238t-228 77q-104 0 -160 -31v-590q41 -12 121 -12q340 1 340 318zM348 657v-657h-186v1354q136 76 362 76t348 -110t123 -298q0 -188 -115 -291q-116 -102 -313 -106v-4l461 -621h-213l-463 657h-4z" />
    <glyph glyph-name="S" unicode="S" horiz-adv-x="952" 
d="M842 397q0 -184 -120 -301q-120 -116 -316 -116t-318 77l49 131q107 -66 237 -66t202 73q72 72 71 179q0 106 -56 168t-190 115q-299 119 -299 377q0 166 110 281t289 115t287 -76l-45 -119q-104 65 -219 65t-176 -66t-61 -174t60 -164t175 -101q320 -126 320 -398z" />
    <glyph glyph-name="T" unicode="T" horiz-adv-x="872" 
d="M811 1282h-281v-1282h-188v1282h-281v127h750v-127z" />
    <glyph glyph-name="U" unicode="U" horiz-adv-x="1193" 
d="M1036 401q0 -184 -121 -304t-319 -120t-318 120t-120 304v1008h188v-1006q0 -129 76 -203t184 -75q108 0 184 75q75 75 74 203v1006h172v-1008z" />
    <glyph glyph-name="V" unicode="V" horiz-adv-x="1083" 
d="M1040 1409l-409 -1409h-164l-418 1409h201l260 -991l41 -185h4q20 96 43 185l264 991h178z" />
    <glyph glyph-name="W" unicode="W" horiz-adv-x="1673" 
d="M1604 1409l-330 -1409h-166l-238 983l-30 158h-4q-6 -72 -27 -158l-240 -983h-166l-329 1409h194l203 -1018l25 -162h4q10 80 30 162l244 1018h144l241 -1018l29 -162h4q8 86 25 162l213 1018h174z" />
    <glyph glyph-name="X" unicode="X" horiz-adv-x="1062" 
d="M1016 0h-213l-275 584h-4l-284 -584h-191l383 725l-342 684h205l237 -532h5l268 532h176l-350 -661z" />
    <glyph glyph-name="Y" unicode="Y" horiz-adv-x="1024" 
d="M606 0h-188v625l-383 784h203l280 -637h4l291 637h180l-387 -784v-625z" />
    <glyph glyph-name="Z" unicode="Z" horiz-adv-x="886" 
d="M819 0h-770l518 1282h-485v127h723l-512 -1282h526v-127z" />
    <glyph glyph-name="bracketleft" unicode="[" horiz-adv-x="702" 
d="M602 -440h-442v2048h440v-107h-278v-1833h280v-108z" />
    <glyph glyph-name="backslash" unicode="\" horiz-adv-x="1163" 
d="M1130 -406l-120 -59l-977 2036l121 61z" />
    <glyph glyph-name="bracketright" unicode="]" horiz-adv-x="702" 
d="M543 -440h-443v108h279v1833h-279v107h443v-2048z" />
    <glyph glyph-name="asciicircum" unicode="^" horiz-adv-x="1183" 
d="M592 1425q57 0 96 -51l301 -393l-65 -68l-332 377l-332 -377l-65 68l301 393q39 51 96 51z" />
    <glyph glyph-name="underscore" unicode="_" 
d="M1102 -403h-1122v116h1122v-116z" />
    <glyph glyph-name="grave" unicode="`" horiz-adv-x="401" 
d="M58 1540q62 0 118 -35l143 -280h-102l-233 278q12 37 74 37z" />
    <glyph glyph-name="a" unicode="a" horiz-adv-x="1021" 
d="M524 84q115 0 183 37v506q-231 -29 -337 -96t-108 -222q0 -225 262 -225zM707 786q0 219 -244 220q-127 0 -266 -70l-43 106q150 82 329 82t287 -85t107 -273v-709q-139 -77 -359 -77t-323 85q-104 85 -105 240q0 210 181 304q159 82 436 110v67z" />
    <glyph glyph-name="b" unicode="b" horiz-adv-x="1079" 
d="M797 565q0 197 -73 322t-220 125q-102 0 -180 -43v-846q53 -27 155 -27q318 0 318 469zM549 1118q193 0 311 -150t117 -409q0 -260 -130 -420q-131 -159 -357 -159t-345 77v1551h179v-541q98 51 225 51z" />
    <glyph glyph-name="c" unicode="c" horiz-adv-x="841" 
d="M102 555q0 264 118 417t306 152q160 0 244 -73l-43 -105q-72 53 -164 53q-279 0 -278 -440q1 -203 71 -325t201 -121q92 0 168 53l45 -113q-82 -73 -257 -73t-293 156t-118 419z" />
    <glyph glyph-name="d" unicode="d" horiz-adv-x="1079" 
d="M596 98q113 0 160 31v860q-76 20 -138 21q-178 0 -258 -129t-80 -334t78 -327q76 -122 238 -122zM102 542q0 264 131 418t349 154q86 0 174 -24v518h178v-1551q-127 -77 -352 -77t-353 149q-127 150 -127 413z" />
    <glyph glyph-name="e" unicode="e" horiz-adv-x="1069" 
d="M795 659q0 348 -254 349q-127 0 -202 -106t-73 -322zM548 1124q202 0 312 -135t107 -405l-695 -101q31 -373 336 -372q162 0 273 63l47 -119q-125 -75 -342 -75t-350 145q-134 145 -134 425t122 426q122 148 324 148z" />
    <glyph glyph-name="f" unicode="f" horiz-adv-x="634" 
d="M580 991h-193v-991h-180v991h-127v113h127v156q0 166 97 261t276 87v-115q-193 -10 -193 -213v-176h193v-113z" />
    <glyph glyph-name="g" unicode="g" horiz-adv-x="1077" 
d="M600 1016q-162 0 -241 -126t-78 -351q0 -444 303 -445q100 0 174 45v846q-55 31 -158 31zM932 -23q0 -209 -113 -325t-321 -115q-208 0 -332 76l55 121q115 -66 258 -66t211 78t68 211v78q-80 -47 -221 -47q-199 0 -317 146t-118 407t130 423t372 160q207 0 328 -77
v-1070z" />
    <glyph glyph-name="h" unicode="h" horiz-adv-x="1091" 
d="M946 0h-180v782q0 217 -225 217q-123 0 -215 -55v-944h-181v1608h181v-561q133 68 254 67q194 0 280 -95t86 -231v-788z" />
    <glyph glyph-name="i" unicode="i" horiz-adv-x="493" 
d="M338 0h-180v1104h180v-1104zM352 1415q0 -41 -30 -69t-75 -29q-44 0 -75 29q-31 30 -31 70t31 70t75 30q45 0 75 -30t30 -71z" />
    <glyph glyph-name="j" unicode="j" horiz-adv-x="499" 
d="M342 63q0 -225 -113 -362t-270 -156v119q203 74 203 387v1053h180v-1041zM358 1415q0 -41 -30 -69t-75 -29q-44 0 -76 30q-32 29 -32 69t31 70t76 30q46 0 76 -30t30 -71z" />
    <glyph glyph-name="k" unicode="k" horiz-adv-x="974" 
d="M332 569v-569h-176v1608h176v-1016h4l393 512h189l-418 -516l463 -588h-205l-422 569h-4z" />
    <glyph glyph-name="l" unicode="l" horiz-adv-x="497" 
d="M338 0h-180v1608h180v-1608z" />
    <glyph glyph-name="m" unicode="m" horiz-adv-x="1712" 
d="M1567 0h-181v795q0 92 -50 151q-50 60 -174 60t-216 -99v-907h-180v803q0 94 -62 149q-62 56 -177 56q-114 0 -201 -37v-971h-181v1047q160 77 387 77t334 -133q128 133 326 133t286 -96t89 -229v-799z" />
    <glyph glyph-name="n" unicode="n" horiz-adv-x="1091" 
d="M946 0h-180v793q0 215 -231 215q-119 0 -209 -39v-969h-181v1047q163 77 389 77t319 -95t93 -232v-797z" />
    <glyph glyph-name="o" unicode="o" horiz-adv-x="1067" 
d="M784 558q0 452 -250 452t-251 -452q0 -452 252 -454q249 2 249 454zM965 554q0 -259 -108 -417q-109 -157 -323 -157t-323 158t-109 415q0 258 109 415q109 156 323 156t323 -156q108 -156 108 -414z" />
    <glyph glyph-name="p" unicode="p" horiz-adv-x="1079" 
d="M797 560q0 222 -74 339t-242 117q-86 0 -157 -31v-866q59 -25 135 -25q166 0 252 122t86 344zM977 561q0 -264 -131 -421t-350 -156q-96 0 -172 26v-450h-179v1487q133 77 354 77t350 -149q128 -150 128 -414z" />
    <glyph glyph-name="q" unicode="q" horiz-adv-x="1079" 
d="M600 1016q-162 0 -241 -126t-78 -351q0 -444 301 -445q98 0 176 45v846q-55 31 -158 31zM934 -440h-176v475q-88 -51 -223 -51q-199 0 -316 147t-117 407t127 424t375 162q209 0 330 -77v-1487z" />
    <glyph glyph-name="r" unicode="r" horiz-adv-x="659" 
d="M326 0h-181v1044q88 46 190 64t286 14l-43 -137q-68 20 -138 14t-114 -34v-965z" />
    <glyph glyph-name="s" unicode="s" horiz-adv-x="827" 
d="M731 294q0 -118 -103 -214q-102 -96 -276 -96t-274 75l49 119q78 -66 215 -65q90 0 147 54t58 136q0 82 -43 129q-42 47 -164 92q-231 86 -234 299q0 127 92 215t237 88q146 0 259 -75l-47 -109q-82 62 -176 62t-143 -50t-49 -125t47 -119t137 -79q152 -57 210 -137
q58 -82 58 -200z" />
    <glyph glyph-name="t" unicode="t" horiz-adv-x="657" 
d="M481 -10q-139 0 -207 82t-67 196v723h-127v113h127v254l180 55v-309h193v-113h-193v-719q0 -72 34 -116t105 -43q16 0 54 8v-115q-55 -16 -99 -16z" />
    <glyph glyph-name="u" unicode="u" horiz-adv-x="1071" 
d="M145 1104h181v-772q0 -102 56 -164t172 -64q116 0 191 46v954h181v-1038q-154 -88 -389 -89q-391 0 -392 361v766z" />
    <glyph glyph-name="v" unicode="v" horiz-adv-x="999" 
d="M946 1104l-358 -1104h-162l-367 1104h193l231 -791l29 -135h4q4 59 27 135l235 791h168z" />
    <glyph glyph-name="w" unicode="w" horiz-adv-x="1579" 
d="M1513 1104l-315 -1104h-156l-223 788l-22 130h-2q-6 -61 -27 -130l-227 -788h-156l-313 1104h184l193 -793l22 -131h4q6 55 27 131l223 793h156l217 -793l24 -131h4q6 68 23 133l201 791h163z" />
    <glyph glyph-name="x" unicode="x" horiz-adv-x="966" 
d="M918 0h-199l-238 449h-4l-241 -449h-187l342 571l-305 533h188l215 -404h5l219 404h170l-308 -518z" />
    <glyph glyph-name="y" unicode="y" horiz-adv-x="999" 
d="M946 1104l-508 -1544h-194l184 440l-369 1104h193l227 -793q18 -59 27 -141h4q6 66 29 141l239 793h168z" />
    <glyph glyph-name="z" unicode="z" horiz-adv-x="854" 
d="M772 0h-711l465 991h-430v113h660l-455 -991h471v-113z" />
    <glyph glyph-name="braceleft" unicode="{" horiz-adv-x="757" 
d="M645 -264q-178 0 -279 76t-102 237v320q0 137 -37 194t-121 62v100q84 4 121 61t37 191v319q0 158 102 235t279 77v-99q-221 0 -221 -209v-376q0 -211 -170 -248v-4q170 -41 170 -250v-377q0 -209 221 -209v-100z" />
    <glyph glyph-name="bar" unicode="|" horiz-adv-x="466" 
d="M307 -440h-147v2048h147v-2048z" />
    <glyph glyph-name="braceright" unicode="}" horiz-adv-x="757" 
d="M494 49q0 -161 -102 -237t-279 -76v100q223 0 223 209v377q0 211 168 250v4q-168 37 -168 248v376q0 209 -223 209v99q176 0 278 -77t103 -235v-319q0 -133 36 -191q37 -57 121 -61v-100q-84 -3 -121 -61t-36 -195v-320z" />
    <glyph glyph-name="asciitilde" unicode="~" horiz-adv-x="1183" 
d="M1012 723q-45 -141 -211 -164q-65 -10 -133 26q-68 37 -137 73t-132 28q-111 -14 -163 -137l-64 104q33 74 78 117t122 51q76 7 146 -29t134 -72t126 -28q115 16 164 137z" />
    <glyph glyph-name="nbspace" unicode="&#xa0;" horiz-adv-x="565" 
 />
    <glyph glyph-name="exclamdown" unicode="&#xa1;" horiz-adv-x="593" 
d="M426 -440h-213l39 946h135zM438 860q0 -49 -35 -83t-83 -34t-82 34t-35 83q0 49 35 84q34 35 82 35t83 -35t35 -84z" />
    <glyph glyph-name="cent" unicode="&#xa2;" 
d="M180 701q0 209 95 339t257 152l-18 215h123l-14 -211q141 -6 215 -61l-39 -95q-68 43 -164 43q-143 0 -212 -100t-69 -273q0 -172 72 -274t205 -102q94 0 166 43l41 -103q-76 -55 -220 -61l17 -211h-125l18 217q-162 23 -255 148t-93 334z" />
    <glyph glyph-name="sterling" unicode="&#xa3;" 
d="M977 0h-836q201 240 201 485q0 84 -27 191h-196v106h168q-47 158 -47 277q0 158 113 264q114 107 303 107t298 -72l-47 -115q-100 55 -230 55t-196 -78q-114 -135 -30 -438h278v-106h-258q18 -80 18 -178q-1 -98 -37 -202q-36 -103 -67 -146h592v-150z" />
    <glyph glyph-name="currency" unicode="&#xa4;" 
d="M803 698q0 109 -77 186q-78 77 -186 77t-185 -77t-77 -186q0 -108 78 -186q76 -78 185 -78t185 78t77 186zM541 319q-129 0 -230 78l-147 -147l-72 72l148 147q-78 100 -78 229t78 230l-148 147l72 72l147 -148q99 78 229 78t230 -78l148 148l71 -72l-147 -147
q78 -100 78 -230t-78 -229l147 -147l-71 -72l-148 147q-100 -78 -229 -78z" />
    <glyph glyph-name="yen" unicode="&#xa5;" 
d="M629 0h-174v575l-361 -20v94l357 -14l-103 207l-254 -19v92l225 -14l-249 508h190l285 -653h4l295 653h168l-248 -508l221 14v-92l-250 19l-102 -207l352 14v-94l-356 20v-575z" />
    <glyph glyph-name="brokenbar" unicode="&#xa6;" horiz-adv-x="466" 
d="M307 -440h-147v809h147v-809zM307 799h-147v809h147v-809z" />
    <glyph glyph-name="section" unicode="&#xa7;" 
d="M776 422q0 80 -25 136q-26 56 -102 122l-178 151q-174 -104 -174 -253q0 -80 32 -140t105 -123l166 -141q176 111 176 248zM928 444q0 -197 -244 -342q143 -127 143 -261t-94 -216q-95 -82 -249 -82t-261 74l49 113q82 -64 178 -64t153 43q56 43 56 107t-21 108
q-22 43 -93 105l-211 178q-102 86 -140 165t-38 181q0 199 239 350q-121 115 -121 240t86 203t231 78t243 -70l-46 -101q-84 55 -173 55t-136 -39t-47 -105t29 -116t110 -118l166 -142q107 -92 149 -168t42 -176z" />
    <glyph glyph-name="dieresis" unicode="&#xa8;" horiz-adv-x="401" 
d="M125 1350q0 -37 -28 -62q-29 -24 -67 -24t-65 26t-27 61t28 61q26 26 65 26t67 -26t27 -62zM461 1350q0 -37 -27 -62q-28 -24 -66 -24t-65 26t-27 61t27 61t66 26t65 -26t27 -62z" />
    <glyph glyph-name="copyright" unicode="&#xa9;" horiz-adv-x="1689" 
d="M862 276q-190 0 -316 126t-126 306t126 305q126 126 312 126t320 -154l-70 -63q-104 125 -250 125q-146 1 -246 -99q-98 -100 -98 -240t98 -240t244 -99q146 0 250 120l74 -57q-128 -156 -318 -156zM1481 702q-1 262 -187 450t-449 187q-263 0 -449 -187
q-186 -188 -187 -450q0 -262 186 -448q185 -186 449 -186t450 186t187 448zM1569 703q0 -300 -213 -512q-213 -211 -512 -211t-511 212t-212 511q0 300 212 512t511 212t512 -212t213 -512z" />
    <glyph glyph-name="ordfeminine" unicode="&#xaa;" horiz-adv-x="722" 
d="M381 793q70 0 115 20v291q-152 -18 -221 -54t-68 -128q0 -129 174 -129zM376 717q-144 0 -216 55q-72 54 -72 136t31 130q53 81 219 114q63 13 158 22v38q0 127 -154 127q-86 0 -172 -41l-31 76q94 49 221 49q256 0 256 -221v-434q-96 -51 -240 -51z" />
    <glyph glyph-name="guillemotleft" unicode="&#xab;" horiz-adv-x="1052" 
d="M528 301l-96 -63l-309 446l309 446l96 -63l-262 -383zM905 301l-96 -63l-309 446l309 446l96 -63l-262 -383z" />
    <glyph glyph-name="logicalnot" unicode="&#xac;" 
d="M934 299h-129v328h-658v123h787v-451z" />
    <glyph glyph-name="registered" unicode="&#xae;" horiz-adv-x="1689" 
d="M791 748q95 0 155 41t60 130t-58 125t-126 37q-68 0 -107 -16v-317h76zM715 680v-395h-97v835q82 41 202 41t202 -63q82 -64 82 -174t-71 -170t-183 -68l291 -401h-115l-281 395h-30zM1481 702q-1 262 -187 450t-449 187q-263 0 -449 -187q-186 -188 -187 -450
q0 -262 186 -448q185 -186 449 -186t450 186t187 448zM1569 703q0 -300 -213 -512q-213 -211 -512 -211t-511 212t-212 511q0 300 212 512t511 212t512 -212t213 -512z" />
    <glyph glyph-name="macron" unicode="&#xaf;" horiz-adv-x="401" 
d="M492 1288h-582v105h582v-105z" />
    <glyph glyph-name="degree" unicode="&#xb0;" horiz-adv-x="860" 
d="M641 1124q0 88 -61 150q-62 62 -150 61q-88 0 -149 -61q-61 -62 -61 -150t60 -149q62 -61 150 -61t150 60q62 62 61 150zM737 1124q0 -127 -90 -217t-217 -90t-217 90t-90 217t90 217q90 91 217 91t217 -90t90 -218z" />
    <glyph glyph-name="plusminus" unicode="&#xb1;" 
d="M934 145h-787v119h787v-119zM934 745h-332v-354h-125v354h-330v119h330v350h125v-350h332v-119z" />
    <glyph glyph-name="twosuperior" unicode="&#xb2;" horiz-adv-x="753" 
d="M631 555h-533l312 430q78 109 78 181t-44 111q-43 40 -123 40t-145 -33l-39 88q98 49 220 49q122 -1 195 -65t73 -168t-109 -244l-215 -278h330v-111z" />
    <glyph glyph-name="threesuperior" unicode="&#xb3;" horiz-adv-x="753" 
d="M625 805q0 -119 -83 -192t-213 -73t-220 52l36 92q74 -39 162 -39t134 42t46 118q0 178 -239 168v82q98 8 154 49t57 104q0 117 -137 117q-78 0 -148 -35l-37 84q87 49 199 49t183 -53t71 -147q0 -123 -139 -189q174 -59 174 -229z" />
    <glyph glyph-name="acute" unicode="&#xb4;" horiz-adv-x="401" 
d="M343 1540q63 0 75 -37l-234 -278h-102l143 280q55 35 118 35z" />
    <glyph glyph-name="mu" unicode="&#xb5;" horiz-adv-x="1091" 
d="M586 -14q-133 0 -260 69v-495h-181v1544h181v-944q102 -58 230 -58t210 45v957h180v-1036q-147 -82 -360 -82z" />
    <glyph glyph-name="paragraph" unicode="&#xb6;" 
d="M995 1317h-63v-1757h-129v1757h-277v-1757h-129v1106q-155 16 -247 115t-93 249q0 193 128 286t325 93h485v-92z" />
    <glyph glyph-name="periodcentered" unicode="&#xb7;" horiz-adv-x="497" 
d="M369 705q0 -49 -35 -84t-85 -35t-85 35t-35 84t35 83t85 35q50 -1 85 -35t35 -83z" />
    <glyph glyph-name="cedilla" unicode="&#xb8;" horiz-adv-x="401" 
d="M463 -254q0 -92 -138 -130t-386 -17l41 69q143 -12 245 7t103 69q0 84 -260 66l41 63q354 33 354 -127z" />
    <glyph glyph-name="onesuperior" unicode="&#xb9;" horiz-adv-x="753" 
d="M512 555h-131v688q-84 -29 -217 -39l-12 72q199 25 270 133h90v-854z" />
    <glyph glyph-name="ordmasculine" unicode="&#xba;" horiz-adv-x="722" 
d="M362 809q160 0 160 269t-160 270q-162 0 -162 -270q2 -270 162 -269zM362 1427q145 0 217 -97t72 -256q-1 -159 -73 -257t-216 -98t-218 98q-72 98 -72 257t72 256q73 97 218 97z" />
    <glyph glyph-name="guillemotright" unicode="&#xbb;" horiz-adv-x="1052" 
d="M555 684l-309 -446l-99 63l263 383l-263 383l99 63zM930 684l-307 -446l-97 63l260 383l-260 383l97 63z" />
    <glyph glyph-name="onequarter" unicode="&#xbc;" horiz-adv-x="1636" 
d="M1288 274v334l2 107h-4q-23 -53 -53 -107l-197 -334h252zM461 555h-131v688q-80 -29 -219 -39l-13 72q203 29 273 133h90v-854zM1194 1393l-678 -1424l-108 47l677 1422zM1481 190h-70v-190h-123v190h-346v84l348 582h121v-582h70v-84z" />
    <glyph glyph-name="onehalf" unicode="&#xbd;" horiz-adv-x="1636" 
d="M461 555h-131v688q-80 -29 -219 -39l-13 72q203 29 273 133h90v-854zM1161 1393l-678 -1424l-108 47l678 1422zM1481 0h-529l312 424q76 102 75 194q0 147 -168 148q-70 0 -135 -37l-37 88q90 51 211 51t194 -68t73 -174q0 -108 -107 -243l-217 -272h328v-111z" />
    <glyph glyph-name="threequarters" unicode="&#xbe;" horiz-adv-x="1636" 
d="M1298 274v334l2 107q-24 -45 -34 -65t-23 -42l-196 -334h251zM625 805q0 -119 -82 -192t-213 -73t-221 52l36 92q74 -39 162 -39t134 42t46 118q0 178 -237 168v82q98 8 153 49t56 104q0 117 -135 117q-78 0 -148 -35l-39 84q89 49 201 49t182 -53t70 -147
q0 -125 -137 -189q172 -59 172 -229zM1260 1393l-680 -1424l-109 47l678 1422zM1491 190h-70v-190h-123v190h-346v84l348 582h121v-582h70v-84z" />
    <glyph glyph-name="questiondown" unicode="&#xbf;" horiz-adv-x="806" 
d="M480 -455q-178 0 -286 89q-108 90 -108 228t93 226t202 121l22 299h136l28 -356q-115 -27 -203 -94t-90 -167q0 -100 60 -158q60 -59 178 -59q117 0 215 54l51 -107q-119 -76 -298 -76zM588 861q0 -48 -35 -83t-83 -35t-83 35t-35 83t35 83t83 35t83 -35t35 -83z" />
    <glyph glyph-name="Agrave" unicode="&#xc0;" horiz-adv-x="1198" 
d="M801 535l-164 534q-34 105 -41 166h-4q-8 -55 -43 -166l-168 -534h420zM1159 0h-194l-134 422h-483l-137 -422h-172l477 1409h168zM395 1831q61 0 117 -35l145 -280h-102l-233 278q12 37 73 37z" />
    <glyph glyph-name="Aacute" unicode="&#xc1;" horiz-adv-x="1198" 
d="M801 535l-164 534q-34 105 -41 166h-4q-8 -55 -43 -166l-168 -534h420zM1159 0h-194l-134 422h-483l-137 -422h-172l477 1409h168zM782 1831q62 0 76 -37l-233 -278h-103l144 280q54 35 116 35z" />
    <glyph glyph-name="Acircumflex" unicode="&#xc2;" horiz-adv-x="1198" 
d="M801 535l-164 534q-34 105 -41 166h-4q-8 -55 -43 -166l-168 -534h420zM1159 0h-194l-134 422h-483l-137 -422h-172l477 1409h168zM600 1794q39 0 70 -31l202 -207l-53 -43l-217 162l-221 -162l-51 43l202 207q29 31 68 31z" />
    <glyph glyph-name="Atilde" unicode="&#xc3;" horiz-adv-x="1198" 
d="M801 535l-164 534q-34 105 -41 166h-4q-8 -55 -43 -166l-168 -534h420zM1159 0h-194l-134 422h-483l-137 -422h-172l477 1409h168zM887 1651q-31 -90 -139 -107q-60 -8 -146 36t-133 40q-72 -6 -107 -90l-53 82q20 49 53 78q34 28 94 34t141 -40t126 -39q76 10 106 90z
" />
    <glyph glyph-name="Adieresis" unicode="&#xc4;" horiz-adv-x="1198" 
d="M801 535l-164 534q-34 105 -41 166h-4q-8 -55 -43 -166l-168 -534h420zM1159 0h-194l-134 422h-483l-137 -422h-172l477 1409h168zM524 1638q0 -36 -26 -62t-66 -26t-66 26t-26 62t27 63q27 25 65 25t66 -25q26 -26 26 -63zM862 1638q0 -36 -28 -62t-65 -26q-38 0 -66 26
q-27 26 -27 62t27 63q28 25 66 25t66 -25q27 -26 27 -63z" />
    <glyph glyph-name="Aring" unicode="&#xc5;" horiz-adv-x="1198" 
d="M801 535l-164 534q-34 105 -41 166h-4q-8 -55 -43 -166l-168 -534h420zM696 1675q0 41 -28 69q-29 28 -68 28t-68 -28q-28 -28 -28 -69t28 -69t68 -27q40 -1 68 27t28 69zM1159 0h-194l-134 422h-483l-137 -422h-172l477 1409h168zM766 1676q0 -68 -48 -116t-117 -48
t-117 48t-48 116t48 117q48 48 117 48t117 -48t48 -117z" />
    <glyph glyph-name="AE" unicode="&#xc6;" horiz-adv-x="1525" 
d="M825 537l-133 583l-20 131h-4q-12 -61 -41 -133l-230 -581h428zM1481 0h-539l-98 422h-492l-168 -422h-174l588 1409h745v-127h-538l125 -491h413v-125h-385l138 -539h385v-127z" />
    <glyph glyph-name="Ccedilla" unicode="&#xc7;" horiz-adv-x="978" 
d="M809 -254q0 -92 -137 -130t-387 -17l43 69q143 -12 244 7t102 69q0 84 -260 66l41 63q354 33 354 -127zM111 702q0 310 141 519t387 209q168 0 274 -78l-45 -111q-90 55 -208 55t-202 -88q-151 -156 -151 -503q0 -250 90 -417t273 -167q106 0 196 55l49 -119
q-102 -78 -276 -77q-246 0 -387 206t-141 516z" />
    <glyph glyph-name="Egrave" unicode="&#xc8;" horiz-adv-x="903" 
d="M811 0h-653v1409h653v-127h-465v-491h418v-125h-418v-539h465v-127zM313 1831q61 0 117 -35l143 -280h-102l-233 278q14 37 75 37z" />
    <glyph glyph-name="Eacute" unicode="&#xc9;" horiz-adv-x="903" 
d="M811 0h-653v1409h653v-127h-465v-491h418v-125h-418v-539h465v-127zM652 1831q62 0 75 -37l-233 -278h-103l144 280q55 35 117 35z" />
    <glyph glyph-name="Ecircumflex" unicode="&#xca;" horiz-adv-x="903" 
d="M811 0h-653v1409h653v-127h-465v-491h418v-125h-418v-539h465v-127zM473 1794q39 0 70 -31l200 -207l-51 -43l-219 162l-219 -162l-51 43l200 207q31 31 70 31z" />
    <glyph glyph-name="Edieresis" unicode="&#xcb;" horiz-adv-x="903" 
d="M811 0h-653v1409h653v-127h-465v-491h418v-125h-418v-539h465v-127zM401 1638q1 -36 -27 -62t-67 -26t-65 26t-27 62q0 36 27 63q28 25 66 25t66 -25q27 -26 27 -63zM737 1638q1 -36 -27 -62t-66 -26t-66 26t-27 62q0 36 28 63q27 25 65 25t66 -25q27 -26 27 -63z" />
    <glyph glyph-name="Igrave" unicode="&#xcc;" horiz-adv-x="518" 
d="M354 0h-188v1409h188v-1409zM106 1831q61 0 117 -35l144 -280h-103l-233 278q14 37 75 37z" />
    <glyph glyph-name="Iacute" unicode="&#xcd;" horiz-adv-x="518" 
d="M352 0h-188v1409h188v-1409zM412 1831q62 0 75 -37l-235 -278h-100l143 280q55 35 117 35z" />
    <glyph glyph-name="Icircumflex" unicode="&#xce;" horiz-adv-x="518" 
d="M352 0h-188v1409h188v-1409zM258 1794q39 0 70 -31l200 -207l-51 -43l-217 162l-221 -162l-51 43l202 207q29 31 68 31z" />
    <glyph glyph-name="Idieresis" unicode="&#xcf;" horiz-adv-x="518" 
d="M352 0h-188v1409h188v-1409zM182 1638q0 -36 -26 -62t-66 -26t-66 26t-26 62t27 63q27 25 65 25t66 -25q26 -26 26 -63zM520 1638q0 -36 -28 -62t-65 -26q-38 0 -66 26q-27 26 -27 62t27 63q28 25 66 25t66 -25q27 -26 27 -63z" />
    <glyph glyph-name="Eth" unicode="&#xd0;" horiz-adv-x="1273" 
d="M969 721q0 588 -400 588q-106 0 -174 -27v-469h236v-102h-236v-574q76 -27 178 -26q209 0 303 151q93 152 93 459zM575 1430q287 0 437 -188t151 -526q0 -337 -144 -537t-435 -199q-250 0 -373 77v654h-125v102h125v539q141 78 364 78z" />
    <glyph glyph-name="Ntilde" unicode="&#xd1;" horiz-adv-x="1325" 
d="M1167 0h-163l-601 1028l-90 170h-4q6 -86 6 -174v-1024h-157v1409h198l576 -989l80 -150h4q-6 68 -6 156v983h157v-1409zM950 1651q-31 -90 -139 -107q-59 -8 -144 36t-132 40q-74 -6 -109 -90l-53 82q42 103 145 112q59 6 141 -40t129 -39q76 10 107 90z" />
    <glyph glyph-name="Ograve" unicode="&#xd2;" horiz-adv-x="1239" 
d="M938 711q0 240 -62 402q-34 89 -99 140t-157 51t-157 -50q-162 -126 -162 -543q1 -592 319 -592t318 592zM1128 705q0 -211 -49 -369t-166 -257t-292 -99q-260 0 -385 200t-125 525q0 209 49 367t167 257q118 100 294 101q259 0 383 -200t124 -525zM454 1831
q62 0 117 -35l144 -280h-103l-233 278q13 37 75 37z" />
    <glyph glyph-name="Oacute" unicode="&#xd3;" horiz-adv-x="1239" 
d="M938 711q0 240 -62 402q-34 89 -99 140t-157 51t-157 -50q-162 -126 -162 -543q1 -592 319 -592t318 592zM1128 705q0 -211 -49 -369t-166 -257t-292 -99q-260 0 -385 200t-125 525q0 209 49 367t167 257q118 100 294 101q259 0 383 -200t124 -525zM774 1831q62 0 76 -37
l-234 -278h-102l143 280q55 35 117 35z" />
    <glyph glyph-name="Ocircumflex" unicode="&#xd4;" horiz-adv-x="1239" 
d="M938 711q0 240 -62 402q-34 89 -99 140t-157 51t-157 -50q-162 -126 -162 -543q1 -592 319 -592t318 592zM1128 705q0 -211 -49 -369t-166 -257t-292 -99q-260 0 -385 200t-125 525q0 209 49 367t167 257q118 100 294 101q259 0 383 -200t124 -525zM620 1794q38 0 70 -31
l201 -207l-51 -43l-219 162l-220 -162l-51 43l201 207q31 31 69 31z" />
    <glyph glyph-name="Otilde" unicode="&#xd5;" horiz-adv-x="1239" 
d="M938 711q0 240 -62 402q-34 89 -99 140t-157 51t-157 -50q-162 -126 -162 -543q1 -592 319 -592t318 592zM1128 705q0 -211 -49 -369t-166 -257t-292 -99q-260 0 -385 200t-125 525q0 209 49 367t167 257q118 100 294 101q259 0 383 -200t124 -525zM903 1651
q-35 -92 -141 -107q-58 -8 -144 36q-188 97 -239 -50l-53 82q41 102 143 112q61 6 142 -40t128 -39q76 10 107 90z" />
    <glyph glyph-name="Odieresis" unicode="&#xd6;" horiz-adv-x="1239" 
d="M938 711q0 240 -62 402q-34 89 -99 140t-157 51t-157 -50q-162 -126 -162 -543q1 -592 319 -592t318 592zM1128 705q0 -211 -49 -369t-166 -257t-292 -99q-260 0 -385 200t-125 525q0 209 49 367t167 257q118 100 294 101q259 0 383 -200t124 -525zM545 1638
q0 -36 -28 -62q-29 -26 -67 -26t-65 26t-27 62t27 63q27 25 66 25t67 -26t27 -62zM881 1638q0 -36 -27 -62t-66 -26q-40 0 -66 26t-26 62t27 63q27 25 65 25t66 -26q27 -26 27 -62z" />
    <glyph glyph-name="multiply" unicode="&#xd7;" 
d="M944 324l-86 -82l-317 352l-316 -350l-86 82l320 356l-322 358l86 82l318 -352l315 352l86 -82l-319 -358z" />
    <glyph glyph-name="Oslash" unicode="&#xd8;" horiz-adv-x="1249" 
d="M956 711q0 219 -59 360l-518 -811q84 -152 246 -151q331 0 331 602zM625 1315q-94 0 -162 -51q-68 -52 -103 -142q-67 -173 -67 -403q0 -231 57 -371l518 813q-84 154 -243 154zM1135 712q0 -333 -125 -533t-385 -199q-207 0 -334 139l-109 -168l-61 39l121 188
q-127 188 -127 520t126 532t384 200q203 0 327 -136l109 172l61 -39l-121 -190q134 -192 134 -525z" />
    <glyph glyph-name="Ugrave" unicode="&#xd9;" horiz-adv-x="1193" 
d="M1036 401q0 -184 -121 -304t-319 -120t-318 120t-120 304v1008h188v-1006q0 -129 76 -203t184 -75q108 0 184 75q75 75 74 203v1006h172v-1008zM462 1831q62 0 118 -35l143 -280h-102l-234 278q13 37 75 37z" />
    <glyph glyph-name="Uacute" unicode="&#xda;" horiz-adv-x="1193" 
d="M1036 401q0 -184 -121 -304t-319 -120t-318 120t-120 304v1008h188v-1006q0 -129 76 -203t184 -75q108 0 184 75q75 75 74 203v1006h172v-1008zM760 1831q62 0 76 -37l-236 -278h-100l143 280q55 35 117 35z" />
    <glyph glyph-name="Ucircumflex" unicode="&#xdb;" horiz-adv-x="1193" 
d="M1036 401q0 -184 -121 -304t-319 -120t-318 120t-120 304v1008h188v-1006q0 -129 76 -203t184 -75q108 0 184 75q75 75 74 203v1006h172v-1008zM602 1794q39 0 70 -31l200 -207l-51 -43l-219 162l-219 -162l-51 43l200 207q31 31 70 31z" />
    <glyph glyph-name="Udieresis" unicode="&#xdc;" horiz-adv-x="1193" 
d="M1036 401q0 -184 -121 -304t-319 -120t-318 120t-120 304v1008h188v-1006q0 -129 76 -203t184 -75q108 0 184 75q75 75 74 203v1006h172v-1008zM532 1638q0 -36 -28 -62t-65 -26t-65 26t-28 62t28 63q28 25 66 25t65 -25q27 -26 27 -63zM870 1638q0 -36 -28 -62t-66 -26
q-40 0 -66 26t-26 62t27 63q27 25 65 25t67 -25q27 -26 27 -63z" />
    <glyph glyph-name="Yacute" unicode="&#xdd;" horiz-adv-x="1024" 
d="M606 0h-188v625l-383 784h205l280 -637h4l291 637h178l-387 -784v-625zM692 1831q62 0 76 -37l-233 -278h-103l143 280q55 35 117 35z" />
    <glyph glyph-name="Thorn" unicode="&#xde;" 
d="M801 752q0 154 -83 239q-83 86 -222 86q-74 0 -152 -22v-600l57 -6q199 -23 299 63t101 240zM510 1186q231 0 352 -120t121 -316q0 -197 -145 -316t-430 -100l-64 4v-338h-186v1409h186v-250q94 27 166 27z" />
    <glyph glyph-name="germandbls" unicode="&#xdf;" horiz-adv-x="1126" 
d="M1036 305q0 -137 -100 -228t-240 -91t-215 49l39 117q56 -33 142 -33t140 52t54 128t-33 121t-114 96q-168 106 -168 264q0 98 60 165t161 93q16 51 16 136q0 332 -215 331q-231 0 -231 -409v-1096h-180v1087q0 209 85 362q44 81 128 129t198 48q187 0 289 -129t102 -323
q0 -98 -28 -193q-219 -29 -219 -190q0 -55 30 -98q31 -42 120 -98t134 -125t45 -165z" />
    <glyph glyph-name="agrave" unicode="&#xe0;" horiz-adv-x="1021" 
d="M524 84q115 0 183 37v506q-231 -29 -337 -96t-108 -222q0 -225 262 -225zM707 786q0 219 -244 220q-127 0 -266 -70l-43 106q150 82 329 82t287 -85t107 -273v-709q-139 -77 -359 -77t-323 85q-104 85 -105 240q0 210 181 304q159 82 436 110v67zM360 1540q61 0 117 -35
l144 -280h-103l-233 278q14 37 75 37z" />
    <glyph glyph-name="aacute" unicode="&#xe1;" horiz-adv-x="1021" 
d="M524 84q115 0 183 37v506q-231 -29 -337 -96t-108 -222q0 -225 262 -225zM707 786q0 219 -244 220q-127 0 -266 -70l-43 106q150 82 329 82t287 -85t107 -273v-709q-139 -77 -359 -77t-323 85q-104 85 -105 240q0 210 181 304q159 82 436 110v67zM704 1540q62 0 76 -37
l-233 -278h-103l144 280q54 35 116 35z" />
    <glyph glyph-name="acircumflex" unicode="&#xe2;" horiz-adv-x="1021" 
d="M524 84q115 0 183 37v506q-231 -29 -337 -96t-108 -222q0 -225 262 -225zM707 786q0 219 -244 220q-127 0 -266 -70l-43 106q150 82 329 82t287 -85t107 -273v-709q-139 -77 -359 -77t-323 85q-104 85 -105 240q0 210 181 304q159 82 436 110v67zM784 1268l-51 -45
l-219 161l-219 -161l-53 45l202 205q31 31 70 31t68 -31z" />
    <glyph glyph-name="atilde" unicode="&#xe3;" horiz-adv-x="1021" 
d="M524 84q115 0 183 37v506q-231 -29 -337 -96t-108 -222q0 -225 262 -225zM707 786q0 219 -244 220q-127 0 -266 -70l-43 106q150 82 329 82t287 -85t107 -273v-709q-139 -77 -359 -77t-323 85q-104 85 -105 240q0 210 181 304q159 82 436 110v67zM799 1362
q-35 -94 -142 -109q-59 -8 -144 37t-132 41q-74 -8 -109 -90l-51 82q41 100 144 111q61 6 142 -39t128 -41q76 10 106 90z" />
    <glyph glyph-name="adieresis" unicode="&#xe4;" horiz-adv-x="1021" 
d="M524 84q115 0 183 37v506q-231 -29 -337 -96t-108 -222q0 -225 262 -225zM707 786q0 219 -244 220q-127 0 -266 -70l-43 106q150 82 329 82t287 -85t107 -273v-709q-139 -77 -359 -77t-323 85q-104 85 -105 240q0 210 181 304q159 82 436 110v67zM446 1350q0 -37 -28 -62
q-28 -24 -65 -24t-65 26t-28 61t28 61t66 26t64 -26q28 -26 28 -62zM784 1350q0 -37 -28 -62q-28 -24 -66 -24q-40 0 -66 26t-26 61t27 61t65 26t66 -26t28 -62z" />
    <glyph glyph-name="aring" unicode="&#xe5;" horiz-adv-x="1021" 
d="M524 84q115 0 183 37v506q-231 -29 -337 -96t-108 -222q0 -225 262 -225zM616 1386q0 39 -27 68q-28 29 -69 29q-40 0 -68 -29t-28 -68q0 -40 28 -68t68 -28t68 28t28 68zM707 786q0 219 -244 220q-127 0 -266 -70l-43 106q150 82 329 82t287 -85t107 -273v-709
q-139 -77 -359 -77t-323 85q-104 85 -105 240q0 210 181 304q159 82 436 110v67zM686 1385q0 -69 -48 -117t-117 -47q-69 0 -117 48q-48 49 -48 117t48 116t117 48t117 -48t48 -117z" />
    <glyph glyph-name="ae" unicode="&#xe6;" horiz-adv-x="1646" 
d="M705 299v322q-236 -29 -344 -95t-107 -221q0 -219 229 -219q92 0 157 58t65 155zM1117 1008q-125 0 -199 -106t-72 -320l526 77q-2 184 -66 267q-65 82 -189 82zM1197 109q155 0 261 59l47 -113q-125 -76 -334 -75q-244 0 -366 202q-92 -203 -330 -202q-195 0 -290 85
t-95 238q0 205 174 298t441 116v69q0 221 -256 222q-123 0 -250 -68l-41 107q139 78 325 77q244 0 318 -198q51 100 139 149t186 49q204 0 312 -135t106 -405l-690 -103q8 -188 98 -280t245 -92z" />
    <glyph glyph-name="ccedilla" unicode="&#xe7;" horiz-adv-x="841" 
d="M696 -254q0 -92 -138 -130t-386 -17l41 69q143 -12 245 7t103 69q0 84 -260 66l41 63q354 33 354 -127zM102 555q0 264 118 417t306 152q160 0 244 -73l-43 -105q-72 53 -164 53q-279 0 -278 -440q1 -203 71 -325t201 -121q92 0 168 53l45 -113q-82 -73 -257 -73
t-293 156t-118 419z" />
    <glyph glyph-name="egrave" unicode="&#xe8;" horiz-adv-x="1069" 
d="M795 659q0 348 -254 349q-127 0 -202 -106t-73 -322zM548 1124q202 0 312 -135t107 -405l-695 -101q31 -373 336 -372q162 0 273 63l47 -119q-125 -75 -342 -75t-350 145q-134 145 -134 425t122 426q122 148 324 148zM374 1540q62 0 118 -35l143 -280h-103l-233 278
q13 37 75 37z" />
    <glyph glyph-name="eacute" unicode="&#xe9;" horiz-adv-x="1069" 
d="M795 659q0 348 -254 349q-127 0 -202 -106t-73 -322zM548 1124q202 0 312 -135t107 -405l-695 -101q31 -373 336 -372q162 0 273 63l47 -119q-125 -75 -342 -75t-350 145q-134 145 -134 425t122 426q122 148 324 148zM723 1540q62 0 76 -37l-234 -278h-102l143 280
q55 35 117 35z" />
    <glyph glyph-name="ecircumflex" unicode="&#xea;" horiz-adv-x="1069" 
d="M795 659q0 348 -254 349q-127 0 -202 -106t-73 -322zM548 1124q202 0 312 -135t107 -405l-695 -101q31 -373 336 -372q162 0 273 63l47 -119q-125 -75 -342 -75t-350 145q-134 145 -134 425t122 426q122 148 324 148zM815 1268l-53 -45l-217 161l-221 -161l-52 45
l203 205q27 31 67 31t70 -31z" />
    <glyph glyph-name="edieresis" unicode="&#xeb;" horiz-adv-x="1069" 
d="M795 659q0 348 -254 349q-127 0 -202 -106t-73 -322zM548 1124q202 0 312 -135t107 -405l-695 -101q31 -373 336 -372q162 0 273 63l47 -119q-125 -75 -342 -75t-350 145q-134 145 -134 425t122 426q122 148 324 148zM473 1350q0 -37 -28 -62q-29 -24 -67 -24t-65 26
t-27 61t28 61q26 26 65 26t67 -26t27 -62zM809 1350q0 -37 -27 -62q-28 -24 -66 -24t-65 26t-27 61t28 61q26 26 65 26t65 -26t27 -62z" />
    <glyph glyph-name="igrave" unicode="&#xec;" horiz-adv-x="493" 
d="M338 0h-180v1104h180v-1104zM92 1540q62 0 117 -35l143 -280h-102l-234 278q14 37 76 37z" />
    <glyph glyph-name="iacute" unicode="&#xed;" horiz-adv-x="493" 
d="M338 0h-180v1104h180v-1104zM402 1540q62 0 75 -37l-233 -278h-103l144 280q55 35 117 35z" />
    <glyph glyph-name="icircumflex" unicode="&#xee;" horiz-adv-x="493" 
d="M338 0h-180v1104h180v-1104zM518 1268l-51 -45l-219 161l-219 -161l-54 45l203 205q31 31 69 31t68 -31z" />
    <glyph glyph-name="idieresis" unicode="&#xef;" horiz-adv-x="493" 
d="M338 0h-180v1104h180v-1104zM172 1350q0 -37 -28 -62q-28 -24 -66 -24t-65 26t-27 61t28 61t65 26t65 -26t28 -62zM508 1350q0 -37 -28 -62q-28 -24 -66 -24t-65 26t-27 61t28 61t65 26t65 -26t28 -62z" />
    <glyph glyph-name="eth" unicode="&#xf0;" horiz-adv-x="1067" 
d="M778 551q0 244 -73 434q-68 20 -144 21q-279 0 -279 -452t257 -454q239 0 239 451zM958 545q0 -260 -104 -415t-313 -155t-324 153t-115 396t97 407q49 83 134 131t178 48t165 -20q-72 172 -146 292l-184 -55q-16 41 -47 72l182 57q-45 68 -96 121l150 47q57 -63 96 -119
l160 49l24 -36q20 -31 25 -35l-162 -51q280 -449 280 -887z" />
    <glyph glyph-name="ntilde" unicode="&#xf1;" horiz-adv-x="1091" 
d="M946 0h-180v803q0 205 -231 205q-119 0 -209 -39v-969h-181v1047q162 78 408 77q393 0 393 -319v-805zM827 1362q-35 -94 -141 -109q-59 -8 -144 37t-132 41q-76 -10 -107 -90l-53 82q41 100 143 111q61 6 143 -39t128 -41q76 10 106 90z" />
    <glyph glyph-name="ograve" unicode="&#xf2;" horiz-adv-x="1067" 
d="M784 558q0 452 -250 452t-251 -452q0 -452 252 -454q249 2 249 454zM965 554q0 -259 -108 -417q-109 -157 -323 -157t-323 158t-109 415q0 258 109 415q109 156 323 156t323 -156q108 -156 108 -414zM356 1540q61 0 117 -35l143 -280h-100l-235 278q14 37 75 37z" />
    <glyph glyph-name="oacute" unicode="&#xf3;" horiz-adv-x="1067" 
d="M784 558q0 452 -250 452t-251 -452q0 -452 252 -454q249 2 249 454zM965 554q0 -259 -108 -417q-109 -157 -323 -157t-323 158t-109 415q0 258 109 415q109 156 323 156t323 -156q108 -156 108 -414zM710 1540q62 0 76 -37l-233 -278h-102l143 280q54 35 116 35z" />
    <glyph glyph-name="ocircumflex" unicode="&#xf4;" horiz-adv-x="1067" 
d="M784 558q0 452 -250 452t-251 -452q0 -452 252 -454q249 2 249 454zM965 554q0 -259 -108 -417q-109 -157 -323 -157t-323 158t-109 415q0 258 109 415q109 156 323 156t323 -156q108 -156 108 -414zM805 1268l-53 -45l-217 161l-222 -161l-51 45l203 205q27 31 67 31
t70 -31z" />
    <glyph glyph-name="otilde" unicode="&#xf5;" horiz-adv-x="1067" 
d="M784 558q0 452 -250 452t-251 -452q0 -452 252 -454q249 2 249 454zM965 554q0 -259 -108 -417q-109 -157 -323 -157t-323 158t-109 415q0 258 109 415q109 156 323 156t323 -156q108 -156 108 -414zM817 1362q-31 -92 -139 -109q-59 -8 -144 37t-133 41q-74 -8 -108 -90
l-53 82q45 100 145 111q61 6 142 -39t128 -41q76 10 107 90z" />
    <glyph glyph-name="odieresis" unicode="&#xf6;" horiz-adv-x="1067" 
d="M784 558q0 452 -250 452t-251 -452q0 -452 252 -454q249 2 249 454zM965 554q0 -259 -108 -417q-109 -157 -323 -157t-323 158t-109 415q0 258 109 415q109 156 323 156t323 -156q108 -156 108 -414zM457 1350q0 -37 -28 -62q-27 -24 -65 -24t-66 26t-28 61t28 61t66 26
t66 -26t27 -62zM795 1350q0 -37 -28 -62q-28 -24 -66 -24q-37 0 -65 26t-28 61t28 61t66 26t65 -26q28 -26 28 -62z" />
    <glyph glyph-name="divide" unicode="&#xf7;" 
d="M540 457q42 0 72 -30t29 -72q0 -41 -30 -71q-29 -30 -71 -30t-72 30t-30 72t30 71q30 30 72 30zM934 629h-787v106h787v-106zM438 1007q0 41 30 71t72 30t72 -30t29 -71q0 -42 -30 -72q-29 -30 -71 -30t-72 30t-30 72z" />
    <glyph glyph-name="oslash" unicode="&#xf8;" horiz-adv-x="1071" 
d="M801 553q0 195 -51 311l-394 -680q63 -90 181 -90q264 0 264 459zM537 1026q-262 0 -267 -473q0 -190 52 -301l395 680q-68 94 -180 94zM969 574q0 -278 -109 -437q-109 -158 -323 -157q-150 0 -252 83l-92 -159l-54 33l99 169q-136 150 -136 428t109 434
q109 157 324 156q147 0 245 -80l90 156l54 -33l-95 -163q140 -152 140 -430z" />
    <glyph glyph-name="ugrave" unicode="&#xf9;" horiz-adv-x="1071" 
d="M145 1104h181v-772q0 -102 56 -164t172 -64q116 0 191 46v954h181v-1038q-154 -88 -389 -89q-391 0 -392 361v766zM382 1540q62 0 118 -35l143 -280h-100l-236 278q13 37 75 37z" />
    <glyph glyph-name="uacute" unicode="&#xfa;" horiz-adv-x="1071" 
d="M145 1104h181v-772q0 -102 56 -164t172 -64q116 0 191 46v954h181v-1038q-154 -88 -389 -89q-391 0 -392 361v766zM717 1540q62 0 76 -37l-236 -278h-100l143 280q55 35 117 35z" />
    <glyph glyph-name="ucircumflex" unicode="&#xfb;" horiz-adv-x="1071" 
d="M145 1104h181v-772q0 -102 56 -164t172 -64q116 0 191 46v954h181v-1038q-154 -88 -389 -89q-391 0 -392 361v766zM807 1268l-51 -45l-219 161l-220 -161l-51 45l201 205q31 31 70 31t69 -31z" />
    <glyph glyph-name="udieresis" unicode="&#xfc;" horiz-adv-x="1071" 
d="M145 1104h181v-772q0 -102 56 -164t172 -64q116 0 191 46v954h181v-1038q-154 -88 -389 -89q-391 0 -392 361v766zM459 1350q0 -37 -27 -62q-28 -24 -66 -24t-65 26t-27 61t27 61t66 26t65 -26t27 -62zM797 1350q0 -37 -28 -62q-27 -24 -65 -24t-66 26t-28 61t28 61
t66 26t66 -26t27 -62z" />
    <glyph glyph-name="yacute" unicode="&#xfd;" horiz-adv-x="999" 
d="M946 1104l-510 -1544h-190l182 440l-369 1104h193l258 -893h2l266 893h168zM686 1540q62 0 76 -37l-236 -278h-100l143 280q55 35 117 35z" />
    <glyph glyph-name="thorn" unicode="&#xfe;" 
d="M801 557q0 457 -316 457q-90 0 -159 -39v-860q78 -20 133 -21q123 0 203 69t109 168q30 99 30 226zM520 1120q217 0 338 -146t121 -410q0 -263 -137 -421t-348 -157q-82 0 -168 24v-450h-181v2048h179v-537q94 49 196 49z" />
    <glyph glyph-name="ydieresis" unicode="&#xff;" horiz-adv-x="999" 
d="M946 1104l-510 -1544h-190l182 440l-369 1104h193l258 -893h2l266 893h168zM436 1350q0 -37 -28 -62q-28 -24 -66 -24q-39 0 -66 26q-26 26 -26 61t26 61t66 26q38 0 66 -26t28 -62zM772 1350q0 -37 -27 -62q-27 -24 -65 -24t-66 26q-26 26 -26 61t26 61t66 26t66 -26
t26 -62z" />
    <glyph glyph-name="dotlessi" unicode="&#x131;" horiz-adv-x="468" 
d="M324 0h-179v1104h179v-1104z" />
    <glyph glyph-name="Lslash" unicode="&#x141;" horiz-adv-x="858" 
d="M799 0h-611v844l-129 -66v103l129 65v463h189v-393l149 76v-101l-149 -76v-788h422v-127z" />
    <glyph glyph-name="lslash" unicode="&#x142;" horiz-adv-x="600" 
d="M389 0h-180v850l-141 -78v109l141 73v654h180v-588l150 76v-103l-150 -78v-915z" />
    <glyph glyph-name="OE" unicode="&#x152;" horiz-adv-x="1558" 
d="M670 105q104 0 155 14v1175q-63 18 -150 18t-156 -39q-69 -41 -109 -101t-73 -170q-34 -110 -34 -317t70 -375q39 -95 117 -150q76 -55 180 -55zM1466 0h-624q-66 -20 -168 -20q-279 0 -421 200t-142 526q0 328 141 526t420 198q88 0 170 -21h624v-127h-465v-491h420
v-125h-420v-537h465v-129z" />
    <glyph glyph-name="oe" unicode="&#x153;" horiz-adv-x="1724" 
d="M782 553q0 323 -114 415q-53 42 -136 42q-254 0 -254 -454t252 -454t252 451zM1448 653q0 362 -250 363q-125 0 -199 -106t-71 -316zM102 553q0 258 109 415t321 156q115 0 193 -54t137 -173q109 227 342 227q418 0 418 -549l-686 -77q10 -123 46 -207t88 -121
q87 -62 219 -63t249 63l47 -115q-129 -76 -332 -75q-270 0 -387 251q-94 -252 -334 -251q-214 0 -322 158t-108 415z" />
    <glyph glyph-name="Scaron" unicode="&#x160;" horiz-adv-x="952" 
d="M842 397q0 -184 -120 -301q-120 -116 -316 -116t-318 77l49 131q107 -66 237 -66t202 73q72 72 71 179q0 106 -56 168t-190 115q-299 119 -299 377q0 166 110 281t289 115t287 -76l-45 -119q-104 65 -219 65t-176 -66t-61 -174t60 -164t175 -101q320 -126 320 -398z
M748 1751l-203 -205q-31 -30 -71 -30t-68 30l-203 205l51 43l221 -162l221 162z" />
    <glyph glyph-name="scaron" unicode="&#x161;" horiz-adv-x="827" 
d="M731 294q0 -118 -103 -214q-102 -96 -276 -96t-274 75l49 119q78 -66 215 -65q90 0 147 54t58 136q0 82 -43 129q-42 47 -164 92q-231 86 -234 299q0 127 92 215t237 88q146 0 259 -75l-47 -109q-82 62 -176 62t-143 -50t-49 -125t47 -119t137 -79q152 -57 210 -137
q58 -82 58 -200zM686 1462l-203 -207q-31 -31 -69 -31t-70 31l-203 207l52 43l221 -164l221 164z" />
    <glyph glyph-name="Ydieresis" unicode="&#x178;" horiz-adv-x="1024" 
d="M606 0h-188v625l-383 784h205l280 -637h4l291 637h178l-387 -784v-625zM444 1638q0 -36 -28 -62t-65 -26t-65 26t-28 62t28 63q28 25 66 25t65 -25q27 -26 27 -63zM782 1638q0 -36 -28 -62t-66 -26q-40 0 -66 26t-26 62t27 63q27 25 65 25t67 -25q27 -26 27 -63z" />
    <glyph glyph-name="Zcaron" unicode="&#x17d;" horiz-adv-x="886" 
d="M819 0h-770l518 1282h-485v127h723l-512 -1282h526v-127zM711 1751l-203 -205q-31 -30 -70 -30t-69 30l-203 205l51 43l223 -162l219 162z" />
    <glyph glyph-name="zcaron" unicode="&#x17e;" horiz-adv-x="854" 
d="M772 0h-711l465 991h-430v113h660l-455 -991h471v-113zM692 1462l-203 -207q-31 -31 -69 -31t-70 31l-203 207l52 43l223 -164l219 164z" />
    <glyph glyph-name="florin" unicode="&#x192;" horiz-adv-x="1153" 
d="M920 842v-109h-250l-138 -731q-86 -457 -378 -457q-70 0 -131 25l22 127q43 -16 82 -16q96 0 148 86t87 278l130 688h-224v109h246l31 157q38 196 112 313t248 115q90 1 156 -26l-25 -115q-155 51 -219 -39q-23 -31 -35 -51q-23 -39 -59 -205l-31 -149h228z" />
    <glyph glyph-name="circumflex" unicode="&#x2c6;" horiz-adv-x="401" 
d="M471 1268l-51 -45l-219 161l-219 -161l-52 45l201 205q31 31 70 31t69 -31z" />
    <glyph glyph-name="caron" unicode="&#x2c7;" horiz-adv-x="401" 
d="M473 1462l-203 -207q-32 -31 -70 -31t-69 31l-203 207l52 43l221 -164l221 164z" />
    <glyph glyph-name="breve" unicode="&#x2d8;" horiz-adv-x="401" 
d="M200 1225q-130 0 -197 78t-66 165l63 23q35 -162 198 -162t205 162l62 -23q0 -88 -67 -166q-68 -78 -198 -77z" />
    <glyph glyph-name="dotaccent" unicode="&#x2d9;" horiz-adv-x="401" 
d="M299 1415q0 -41 -29 -71q-30 -30 -70 -29q-40 0 -69 30q-29 31 -29 71t29 69t70 29t69 -30q28 -28 29 -69z" />
    <glyph glyph-name="ring" unicode="&#x2da;" horiz-adv-x="401" 
d="M295 1386q0 41 -28 69q-27 28 -67 28t-68 -29t-28 -68q0 -40 28 -68t68 -28t68 28t27 68zM200 1550q69 0 117 -48t48 -117q-1 -69 -49 -117t-116 -47q-68 0 -117 48q-48 49 -48 117t48 116t117 48z" />
    <glyph glyph-name="ogonek" unicode="&#x2db;" horiz-adv-x="401" 
d="M104 -246q0 74 46 130t174 126h127q-125 -72 -168 -120t-43 -103q0 -45 66 -55t173 26l19 -67q-142 -61 -268 -43t-126 106z" />
    <glyph glyph-name="tilde" unicode="&#x2dc;" horiz-adv-x="401" 
d="M489 1362q-35 -94 -139 -109q-59 -8 -145 38t-133 40q-70 -6 -107 -90l-53 82q45 100 143 111q61 6 143 -39t128 -41q76 10 106 90z" />
    <glyph glyph-name="hungarumlaut" unicode="&#x2dd;" horiz-adv-x="401" 
d="M204 1518q56 0 56 -33l-248 -262h-82l174 260q44 35 100 35zM472 1518q56 0 56 -33l-247 -262h-82l174 260q43 35 99 35z" />
    <glyph glyph-name="Delta" unicode="&#x394;" horiz-adv-x="1177" 
d="M924 119l-295 950l-41 154h-4q-25 -88 -45 -154l-301 -950h686zM1149 0h-1120l477 1409h170z" />
    <glyph glyph-name="Omega" unicode="&#x3a9;" horiz-adv-x="1331" 
d="M1237 0h-489q127 137 198 347q72 210 72 437q0 520 -352 521q-184 1 -268 -141t-85 -374q0 -232 72 -442q72 -209 199 -348h-490v127h273q-98 119 -168 303t-70 358q0 295 138 468q137 174 399 174t400 -174t138 -468q0 -170 -70 -355t-165 -306h268v-127z" />
    <glyph glyph-name="pi" unicode="&#x3c0;" horiz-adv-x="1318" 
d="M879 305v682h-441v-987h-180v987h-147v117h1093v-117h-145v-678q0 -148 64 -176q32 -14 81 -14v-119q-92 -8 -156 11t-97 48q-72 65 -72 246z" />
    <glyph glyph-name="endash" unicode="&#x2013;" horiz-adv-x="819" 
d="M819 625h-819v125h819v-125z" />
    <glyph glyph-name="emdash" unicode="&#x2014;" horiz-adv-x="1638" 
d="M1638 633h-1638v106h1638v-106z" />
    <glyph glyph-name="quoteleft" unicode="&#x2018;" horiz-adv-x="540" 
d="M192 1051q-64 0 -79 51l252 506h94l-164 -506q-39 -51 -103 -51z" />
    <glyph glyph-name="quoteright" unicode="&#x2019;" horiz-adv-x="540" 
d="M350 1616q66 0 78 -51l-252 -506h-94l164 506q38 51 104 51z" />
    <glyph glyph-name="quotesinglbase" unicode="&#x201a;" horiz-adv-x="540" 
d="M350 211q64 0 78 -51l-252 -506h-94l164 506q40 51 104 51z" />
    <glyph glyph-name="quotedblleft" unicode="&#x201c;" horiz-adv-x="899" 
d="M192 1051q-64 0 -79 51l252 506h94l-164 -506q-39 -51 -103 -51zM548 1051q-66 0 -77 51l252 506h94l-164 -506q-39 -51 -105 -51z" />
    <glyph glyph-name="quotedblright" unicode="&#x201d;" horiz-adv-x="899" 
d="M350 1616q66 0 78 -51l-252 -506h-94l164 506q38 51 104 51zM708 1616q66 0 78 -51l-254 -506h-92l164 506q38 51 104 51z" />
    <glyph glyph-name="quotedblbase" unicode="&#x201e;" horiz-adv-x="899" 
d="M350 211q64 0 78 -51l-252 -506h-94l164 506q40 51 104 51zM708 211q64 0 78 -51l-254 -506h-92l164 506q40 51 104 51z" />
    <glyph glyph-name="dagger" unicode="&#x2020;" horiz-adv-x="1132" 
d="M1030 936l-391 16l18 -1392h-184l19 1392l-390 -16v176l390 -16l-21 512h186l-18 -512l391 16v-176z" />
    <glyph glyph-name="daggerdbl" unicode="&#x2021;" horiz-adv-x="1132" 
d="M1030 111l-393 12l18 -563h-178l17 563l-392 -12v155l392 -14l-5 352l5 367l-392 -15v156l392 -14l-17 510h178l-18 -510l393 14v-156l-391 15l2 -365l-2 -354l391 14v-155z" />
    <glyph glyph-name="bullet" unicode="&#x2022;" horiz-adv-x="663" 
d="M524 729q0 -80 -56 -136t-136 -56t-136 56t-57 136q1 80 57 136q56 57 136 57t136 -56t56 -137z" />
    <glyph glyph-name="ellipsis" unicode="&#x2026;" horiz-adv-x="1716" 
d="M403 109q-1 -49 -35 -83t-82 -34t-83 34t-35 83t35 84t83 35t83 -35q34 -35 34 -84zM975 109q0 -49 -34 -83t-83 -34t-84 34t-35 83t35 84t84 35t83 -36q34 -34 34 -83zM1548 109q0 -49 -35 -83t-83 -34t-84 34q-35 34 -35 83t35 84t84 35q50 0 84 -36q34 -34 34 -83z
" />
    <glyph glyph-name="perthousand" unicode="&#x2030;" horiz-adv-x="2449" 
d="M264 952q0 -282 71 -355q34 -36 83 -36q151 0 153 395t-153 396q-154 0 -154 -400zM1332 72q152 0 155 394q2 394 -155 394t-152 -397q0 -391 152 -391zM2030 860q-156 0 -154 -395t154 -395t155 395q1 395 -155 395zM692 950q0 -481 -275 -481t-276 481q0 481 277 482
q274 -1 274 -482zM1159 1397l-479 -1413l-94 28l479 1411zM1333 -23q-276 -1 -276 481q-1 482 275 482t276 -479q0 -184 -50 -323q-28 -75 -85 -118t-140 -43zM2032 -23q-276 -1 -277 481q1 482 277 482t276 -482t-276 -481z" />
    <glyph glyph-name="guilsinglleft" unicode="&#x2039;" horiz-adv-x="675" 
d="M528 301l-96 -63l-309 446l309 446l96 -63l-262 -383z" />
    <glyph glyph-name="guilsinglright" unicode="&#x203a;" horiz-adv-x="675" 
d="M553 684l-309 -446l-97 63l261 383l-261 383l97 63z" />
    <glyph glyph-name="fraction" unicode="&#x2044;" horiz-adv-x="327" 
d="M557 1393l-680 -1424l-106 47l678 1422z" />
    <glyph glyph-name="trademark" unicode="&#x2122;" horiz-adv-x="1601" 
d="M592 1331h-197v-633h-102v633h-199v78h498v-78zM1458 698h-98l-74 621l-188 -621h-97l-190 621l-70 -621h-100l92 711h144l174 -608l172 608h145z" />
    <glyph glyph-name="partialdiff" unicode="&#x2202;" 
d="M467 104q166 0 250 172t84 441q-240 74 -384 -40t-145 -327q0 -246 195 -246zM971 681q0 -273 -119 -477q-60 -102 -164 -162t-255 -60t-241 98t-90 252q0 260 199 414t487 69q-23 186 -144 313q-122 127 -269 175l51 118q156 -42 290 -155q255 -214 255 -585z" />
    <glyph glyph-name="product" unicode="&#x220f;" horiz-adv-x="1689" 
d="M1038 898q0 101 -57 143t-123 42t-113 -18v-344q135 -16 214 30t79 147zM849 1163q122 1 206 -65t84 -204t-108 -206t-286 -45v-389h-98v866q80 43 202 43zM1481 702q-1 262 -187 450t-449 187q-263 0 -449 -187q-186 -188 -187 -450q0 -262 186 -448q185 -186 449 -186
t450 186t187 448zM1569 703q0 -300 -213 -512q-213 -211 -512 -211t-511 212t-212 511q0 300 212 512t511 212t512 -212t213 -512z" />
    <glyph glyph-name="summation" unicode="&#x2211;" 
d="M983 -440h-872l491 997l-489 852h852v-129h-582l410 -696l-433 -875l623 -2v-147z" />
    <glyph glyph-name="minus" unicode="&#x2212;" 
d="M934 621h-787v122h787v-122z" />
    <glyph glyph-name="radical" unicode="&#x221a;" 
d="M53 1026h312l208 -807h5l286 1389h158l-360 -1608h-164l-281 926l-164 2v98z" />
    <glyph glyph-name="infinity" unicode="&#x221e;" horiz-adv-x="1751" 
d="M477 911q-88 0 -151 -62q-64 -63 -64 -155t64 -156t154 -65q91 0 158 48t161 171q-104 123 -169 171t-153 48zM1272 477q90 1 152 63t63 155t-63 157t-155 63q-91 0 -153 -44t-162 -173q94 -121 161 -171t157 -50zM1604 694q0 -145 -94 -243q-94 -99 -227 -99
q-132 0 -219 56t-192 194q-106 -139 -188 -194q-82 -56 -215 -56t-227 98t-95 244q1 146 95 244t224 98t214 -55t197 -193q117 143 191 196q75 52 210 52q134 0 230 -98t96 -244z" />
    <glyph glyph-name="integral" unicode="&#x222b;" 
d="M651 -90q1 -164 -107 -261t-290 -89v118q92 -2 157 48t64 159v1370q1 167 107 263t286 88v-117q-92 2 -154 -48t-63 -161v-1370z" />
    <glyph glyph-name="approxequal" unicode="&#x2248;" 
d="M713 365q-65 1 -177 67t-182 66q-121 0 -207 -90v120q82 92 207 93q70 0 182 -68t175 -68q131 0 223 101v-121q-78 -100 -221 -100zM354 989q68 -1 181 -67t176 -66q135 0 223 100v-120q-80 -102 -221 -103q-65 0 -177 68t-182 67q-121 0 -207 -90v121q82 90 207 90z" />
    <glyph glyph-name="notequal" unicode="&#x2260;" 
d="M934 446h-479l-144 -235l-80 49l115 186h-199v119h269l143 236h-412v117h482l135 225l82 -47l-109 -178h197v-117h-264l-146 -236h410v-119z" />
    <glyph glyph-name="lessequal" unicode="&#x2264;" 
d="M934 215h-787v115h787v-115zM934 465l-787 301v108l787 302v-125l-639 -232l639 -231v-123z" />
    <glyph glyph-name="greaterequal" unicode="&#x2265;" 
d="M934 215h-787v115l787 -2v-113zM934 766l-787 -301v123l639 231l-639 232v125l787 -302v-108z" />
    <glyph glyph-name="lozenge" unicode="&#x25ca;" horiz-adv-x="1312" 
d="M1053 686l-410 518l-381 -483l410 -516zM1210 705l-555 -697l-553 697l553 696z" />
    <glyph glyph-name="fi" unicode="&#xfb01;" horiz-adv-x="1079" 
d="M580 991h-193v-991h-180v991h-125v113h125v156q0 166 97 261t276 87v-115q-193 -10 -193 -213v-176h193v-113zM922 0h-181v1104h181v-1104zM934 1415q0 -41 -30 -69t-73 -27q-43 0 -73 29q-30 30 -31 68q0 38 31 67q32 29 74 29t72 -28t30 -69z" />
    <glyph glyph-name="fl" unicode="&#xfb02;" horiz-adv-x="1091" 
d="M580 991h-193v-991h-180v991h-125v113h125v156q0 166 97 261t276 87v-115q-193 -10 -193 -213v-176h193v-113zM934 0h-180v1608h180v-1608z" />
    </font>
</defs>
</svg>
