<?xml version="1.0" standalone="no"?>
<!DOCTYPE svg PUBLIC "-//W3C//DTD SVG 1.1//EN" "http://www.w3.org/Graphics/SVG/1.1/DTD/svg11.dtd" >
<svg xmlns="http://www.w3.org/2000/svg">
<metadata>
Created by FontPrep 20130207 at Mon Apr  8 14:43:48 2019
 By Mauricio Duran
&#60; info@fontfont.de &#62; Copyright Hans Reichel, 1997. Published by FontShop International.  FontFont Release 21
</metadata>
<defs>
<font id="ba84ba515d8e93693c893d2396bce978" horiz-adv-x='1024' >
  <font-face 
    font-family="Dax-Italic"
    font-weight="500"
    font-style="italic"
    font-stretch="normal"
    units-per-em="2048"
    panose-1="0 0 0 0 0 0 0 0 0 0"
    ascent="1608"
    descent="-440"
    x-height="1104"
    cap-height="1409"
    bbox="-311 -465 2331 1841.02"
    underline-thickness="102"
    underline-position="-153"
    slope="-12"
    unicode-range="U+0020-FB02"
  />
<missing-glyph horiz-adv-x="1024" 
 />
    <glyph glyph-name=".notdef" horiz-adv-x="1024" 
 />
    <glyph glyph-name=".null" horiz-adv-x="0" 
 />
    <glyph glyph-name="nonmarkingreturn" horiz-adv-x="681" 
 />
    <glyph glyph-name="space" unicode=" " horiz-adv-x="565" 
 />
    <glyph glyph-name="exclam" unicode="!" horiz-adv-x="612" 
d="M358 129q0 -47 -45 -91t-94 -44t-76 26t-27 72q0 47 46 91q45 44 94 44q102 0 102 -98zM612 1409l-233 -946h-137l157 946h213z" />
    <glyph glyph-name="quotedbl" unicode="&#x22;" horiz-adv-x="798" 
d="M425 1425q56 0 79 -41l-150 -514h-96l70 514q41 41 97 41zM752 1425q54 0 79 -41l-147 -514h-96l69 514q41 41 95 41z" />
    <glyph glyph-name="numbersign" unicode="#" 
d="M739 883h-241l-68 -320h242zM1075 975l-12 -92h-217l-70 -320h211l-10 -92h-219l-96 -471h-107l98 471h-241l-101 -471h-102l98 471h-209l11 92h217l67 320h-209l13 92h215l90 434h104l-88 -434h240l90 434h106l-90 -434h211z" />
    <glyph glyph-name="dollar" unicode="$" 
d="M749 1300q-134 0 -212 -92t-78 -210t151 -201q62 -35 126 -74t108 -105t45 -155q0 -171 -121 -315t-334 -164l-31 -244h-118l67 242q-190 2 -291 75l72 121q88 -59 229 -59t236 95q94 95 94 221t-146 213q-60 36 -122 74t-105 103q-43 66 -43 154q0 162 118 295t311 151
l30 234h113l-64 -232q150 -5 242 -75l-63 -109q-80 57 -214 57z" />
    <glyph glyph-name="percent" unicode="%" horiz-adv-x="1763" 
d="M1520 709q0 154 -101 153q-165 0 -248 -430q-25 -129 -24 -209q0 -150 98 -149q117 0 191 207q31 88 57 218q27 130 27 210zM702 1196q0 154 -100 154q-165 0 -248 -430q-25 -129 -24 -209q0 -150 98 -150q115 0 188 207q31 90 59 219q27 129 27 209zM1632 676
q0 -217 -92 -434q-110 -262 -310 -262t-200 266q0 96 27 220q104 476 373 476q202 0 202 -266zM1352 1397l-770 -1411l-95 26l773 1411zM815 1161q0 -215 -92 -432q-109 -262 -309 -262t-201 266q0 96 27 220q104 476 372 477q203 -1 203 -269z" />
    <glyph glyph-name="ampersand" unicode="&#x26;" horiz-adv-x="1282" 
d="M897 799q-365 -82 -493 -190t-130 -287q0 -106 74 -166t199 -60t211 35zM82 313q0 209 192 357q109 82 271 131v4q-219 63 -219 256q0 147 119 258q121 111 317 111t301 -78l-72 -101q-79 55 -211 55t-204 -74q-72 -75 -72 -167t62 -142t161 -51q225 0 569 164l29 -118
q-129 -53 -244 -80l-161 -779q-141 -79 -370 -79q-228 0 -348 90t-120 243z" />
    <glyph glyph-name="quotesingle" unicode="'" horiz-adv-x="468" 
d="M425 1425q56 0 79 -41l-150 -514h-96l70 514q41 41 97 41z" />
    <glyph glyph-name="parenleft" unicode="(" horiz-adv-x="753" 
d="M133 367q0 348 199 692q154 270 479 573l88 -55q-274 -299 -412 -586q-165 -348 -165 -708t165 -693l-90 -55q-264 424 -264 832z" />
    <glyph glyph-name="parenright" unicode=")" horiz-adv-x="753" 
d="M653 799q0 -346 -198 -690q-154 -270 -480 -574l-88 55q274 299 412 586q166 348 166 708t-166 693l90 55q264 -423 264 -833z" />
    <glyph glyph-name="asterisk" unicode="*" horiz-adv-x="913" 
d="M414 1145q40 1 62 -21t22 -60t-34 -71t-73 -33t-61 24t-23 62q0 38 34 68q34 31 73 31zM756 1145q40 1 62 -21t22 -60t-34 -71t-73 -33t-61 24t-23 62q0 38 34 68q34 31 73 31zM607 1190q-72 0 -72 69q0 33 28 61q29 28 63 28t53 -20t19 -52q0 -34 -28 -60t-63 -26z
M385 1444q39 0 61 -22t23 -61q0 -38 -34 -70q-34 -31 -73 -31q-40 0 -62 22t-22 60t34 70t73 32zM901 1444q39 0 63 -22t23 -61q0 -38 -34 -70q-35 -31 -73 -31t-62 22t-24 60t34 70t73 32zM764 1547q0 -39 -34 -71t-73 -32t-63 22t-23 61q0 37 34 69t73 32q38 0 62 -22
t24 -59z" />
    <glyph glyph-name="plus" unicode="+" 
d="M987 748l-24 -123h-330l-74 -361h-131l76 361h-330l27 123h327l74 356h129l-72 -356h328z" />
    <glyph glyph-name="comma" unicode="," horiz-adv-x="540" 
d="M252 215q74 0 74 -55l-369 -506h-111l277 506q55 55 129 55z" />
    <glyph glyph-name="hyphen" unicode="-" horiz-adv-x="710" 
d="M639 760l-29 -144h-467l31 144h465z" />
    <glyph glyph-name="period" unicode="." horiz-adv-x="524" 
d="M196 227q50 1 76 -25t27 -73q0 -47 -45 -91t-94 -44t-76 26t-27 72q0 47 45 91q44 44 94 44z" />
    <glyph glyph-name="slash" unicode="/" horiz-adv-x="1011" 
d="M1124 1575l-1175 -2038l-131 57l1175 2038z" />
    <glyph glyph-name="zero" unicode="0" 
d="M887 1061q0 258 -164 258q-259 0 -394 -629q-42 -195 -42 -332q0 -258 166 -258q257 0 392 623q42 199 42 338zM1049 1004q0 -158 -45 -346t-115 -330q-170 -348 -451 -348q-168 0 -242 116t-73 290q0 174 45 364t117 333q170 346 448 347q316 0 316 -426z" />
    <glyph glyph-name="one" unicode="1" 
d="M905 1409l-291 -1409h-182l244 1178q-143 -78 -383 -99v113q340 43 485 217h127z" />
    <glyph glyph-name="two" unicode="2" 
d="M1024 1130q0 -199 -260 -471l-485 -509h565l-31 -150h-840l645 707q209 229 209 403q0 184 -235 184q-141 0 -275 -59l-24 117q162 78 347 78t285 -81q99 -82 99 -219z" />
    <glyph glyph-name="three" unicode="3" 
d="M621 1430q176 0 270 -68t94 -198q0 -132 -105 -238t-233 -142v-4q109 -28 181 -100t73 -191q1 -197 -153 -353t-420 -156q-203 0 -336 77l74 119q96 -61 264 -61q168 -1 273 109t105 246t-98 190t-252 47l21 102q190 13 305 109t115 227q0 74 -51 115t-146 40
q-152 0 -283 -61l-24 113q150 78 326 78z" />
    <glyph glyph-name="four" unicode="4" 
d="M842 1229h-4q-61 -92 -148 -201l-469 -600h449l123 592zM1038 1409l-202 -981h114l-22 -106h-115l-65 -322h-168l67 322h-577l24 116l770 971h174z" />
    <glyph glyph-name="five" unicode="5" 
d="M342 115q156 0 270 104t115 277q0 295 -508 225l201 688h657l-28 -149h-533l-121 -431q244 29 384 -63t141 -262q0 -217 -163 -371t-409 -153q-211 0 -336 77l72 119q102 -61 258 -61z" />
    <glyph glyph-name="six" unicode="6" 
d="M803 526q0 215 -254 215q-109 0 -197 -36q-78 -182 -78 -367q0 -236 193 -236q150 0 243 134t93 290zM598 842q168 0 270 -82t102 -255t-124 -341q-60 -82 -164 -133t-231 -51q-168 0 -255 97t-87 267q0 254 165 533q76 129 182 232t212 165q196 114 338 147l22 -121
q-424 -127 -631 -495q100 37 201 37z" />
    <glyph glyph-name="seven" unicode="7" 
d="M1165 1409l-278 -438q-369 -580 -553 -971h-232l811 1260h-651l31 149h872z" />
    <glyph glyph-name="eight" unicode="8" 
d="M778 414q0 70 -43 131t-151 131q-254 -127 -318 -259q-28 -60 -28 -138t58 -129q58 -52 171 -52t212 88t99 228zM905 1151q0 78 -47 124t-133 46q-123 0 -208 -85t-85 -204q0 -66 39 -114t135 -113q141 69 220 147t79 199zM1057 1159q0 -250 -346 -422q123 -83 178 -159
t55 -168q0 -180 -145 -306t-361 -124q-154 0 -259 76t-105 208q0 171 124 285t281 194q-106 69 -154 133t-49 146q0 162 132 285t327 123q141 0 231 -76t91 -195z" />
    <glyph glyph-name="nine" unicode="9" 
d="M889 1079q0 233 -195 234q-108 0 -188 -74t-114 -166t-34 -188q0 -97 64 -155t183 -58q120 0 202 35q82 184 82 372zM1053 1069q0 -258 -164 -534q-207 -343 -585 -500q-83 -35 -148 -51l-23 122q422 127 631 498q-100 -37 -201 -37q-170 0 -270 88t-100 254t125 335
q60 81 164 133t229 53q170 0 256 -96t86 -265z" />
    <glyph glyph-name="colon" unicode=":" horiz-adv-x="524" 
d="M196 227q50 1 76 -25t27 -73q0 -47 -45 -91t-94 -44t-76 26t-27 72q0 47 45 91q44 44 94 44zM328 856q50 0 76 -26t26 -74q0 -47 -44 -90t-93 -43q-49 -1 -76 25t-27 73t44 91t94 44z" />
    <glyph glyph-name="semicolon" unicode=";" horiz-adv-x="540" 
d="M252 215q74 0 74 -55l-369 -506h-111l277 506q55 55 129 55zM344 856q50 0 76 -26t26 -72q0 -47 -44 -91t-93 -44q-49 -1 -76 25t-27 73t45 91q44 44 93 44z" />
    <glyph glyph-name="less" unicode="&#x3c;" 
d="M1038 1096l-30 -142l-695 -270l584 -268l-27 -129l-716 344l22 119z" />
    <glyph glyph-name="equal" unicode="=" 
d="M948 563l-24 -123h-785l25 123h784zM1024 928l-25 -123h-784l25 123h784z" />
    <glyph glyph-name="greater" unicode="&#x3e;" 
d="M983 750l-25 -119l-860 -344l29 143l696 268l-583 271l26 127z" />
    <glyph glyph-name="question" unicode="?" horiz-adv-x="821" 
d="M432 129q0 -47 -44 -91t-93 -44t-76 26t-27 72q0 47 45 91q44 44 93 44q102 0 102 -98zM909 1154q-1 -138 -109 -244q-108 -105 -265 -152l-82 -295h-136l45 356q147 35 253 115q105 80 106 209q0 158 -205 157q-109 0 -223 -57l-33 109q145 78 308 78t252 -69t89 -207z
" />
    <glyph glyph-name="at" unicode="@" horiz-adv-x="1796" 
d="M1149 769q0 81 -37 122t-96 41q-129 0 -252 -148q-72 -84 -124 -200t-52 -213q0 -152 129 -152q150 0 287 189q59 80 102 180t43 181zM1737 991q0 -270 -198 -565t-411 -295q-66 0 -98 48t-12 143q-152 -186 -352 -187q-94 -1 -142 61t-49 172q0 110 66 245
q66 136 155 235q152 166 312 166q186 0 198 -195l66 160h100l-211 -500q-49 -115 -49 -203q0 -61 62 -61t144 71q81 71 155 183q176 266 176 512q0 179 -108 279t-298 100q-348 0 -653 -279q-174 -159 -283 -375t-109 -442t144 -347q144 -122 384 -122t414 73t349 226
l39 -57q-172 -160 -358 -237t-427 -76q-293 0 -463 140t-169 388q0 248 118 481q119 233 306 402q332 295 712 295q223 0 357 -117t133 -322z" />
    <glyph glyph-name="A" unicode="A" horiz-adv-x="1200" 
d="M817 535l-53 534l-10 170h-4q-23 -72 -74 -170l-281 -534h422zM1057 0h-189l-45 422h-483l-223 -422h-183l768 1409h172z" />
    <glyph glyph-name="B" unicode="B" horiz-adv-x="1155" 
d="M848 469q0 117 -92 171t-283 54h-102l-117 -563q82 -33 188 -33q205 0 314 117q92 98 92 254zM940 1137q0 182 -244 182q-106 0 -202 -31l-105 -500h103q240 0 344 96t104 253zM1124 1136q0 -138 -103 -250t-247 -138v-5q110 -18 184 -100t74 -197q0 -78 -35 -162
t-88 -141q-152 -164 -473 -163q-244 0 -375 77l267 1295q162 78 372 78t317 -78t107 -216z" />
    <glyph glyph-name="C" unicode="C" horiz-adv-x="983" 
d="M844 1296q-162 0 -278 -129t-180 -323t-64 -365q0 -356 260 -356q117 0 209 59l28 -125q-103 -77 -293 -77t-295 135q-104 135 -104 354t83 439t228 358q174 164 391 164q166 0 256 -78l-71 -105q-70 49 -170 49z" />
    <glyph glyph-name="D" unicode="D" horiz-adv-x="1216" 
d="M985 979q0 330 -297 330q-102 0 -188 -31l-234 -1139q66 -27 162 -26q225 0 360 188q84 117 140 317t57 361zM1171 942q1 -180 -67 -390t-176 -341q-190 -231 -525 -231q-219 0 -342 77l269 1295q162 78 385 78t339 -130t117 -358z" />
    <glyph glyph-name="E" unicode="E" horiz-adv-x="913" 
d="M1001 1409l-26 -127h-465l-100 -491h415l-24 -125h-418l-111 -539h465l-26 -127h-654l291 1409h653z" />
    <glyph glyph-name="F" unicode="F" horiz-adv-x="897" 
d="M997 1409l-26 -127h-461l-100 -491h413l-24 -125h-416l-137 -666h-189l291 1409h649z" />
    <glyph glyph-name="G" unicode="G" horiz-adv-x="1208" 
d="M903 1298q-258 0 -416 -227q-77 -111 -123 -273t-46 -324t80 -264q81 -102 208 -101q127 0 197 34l108 529h-239l24 119h420l-151 -734q-150 -77 -365 -77t-344 135t-129 383q0 174 62 359t173 317q219 256 529 256q194 0 315 -78l-73 -109q-88 55 -230 55z" />
    <glyph glyph-name="H" unicode="H" horiz-adv-x="1228" 
d="M1253 1409l-290 -1409h-189l137 666h-528l-137 -666h-189l291 1409h189l-127 -618h528l127 618h188z" />
    <glyph glyph-name="I" unicode="I" horiz-adv-x="528" 
d="M545 1409l-291 -1409h-191l291 1409h191z" />
    <glyph glyph-name="J" unicode="J" horiz-adv-x="528" 
d="M545 1409l-273 -1319q-47 -229 -204 -373q-158 -143 -353 -170l31 140q113 31 208 137t126 256l274 1329h191z" />
    <glyph glyph-name="K" unicode="K" horiz-adv-x="1083" 
d="M1206 1409l-631 -666l363 -743h-207l-328 729h-4l-149 -729h-187l293 1409h187l-135 -653h4l592 653h202z" />
    <glyph glyph-name="L" unicode="L" horiz-adv-x="851" 
d="M702 127l-26 -127h-613l291 1409h189l-264 -1282h423z" />
    <glyph glyph-name="M" unicode="M" horiz-adv-x="1609" 
d="M1518 1409l-125 -1409h-174l112 1059l21 166h-4q-27 -78 -70 -166l-520 -1059h-125l-78 1061l-6 164h-4q-14 -80 -41 -164l-332 -1061h-164l459 1409h201l71 -1026l4 -156h5q20 66 65 156l504 1026h201z" />
    <glyph glyph-name="N" unicode="N" horiz-adv-x="1331" 
d="M1356 1409l-291 -1409h-158l-389 1026l-57 172h-4q-10 -84 -29 -174l-213 -1024h-158l291 1409h193l374 -989l50 -150h4q8 68 26 156l203 983h158z" />
    <glyph glyph-name="O" unicode="O" horiz-adv-x="1249" 
d="M1022 1006q0 297 -221 297q-190 0 -320 -224q-74 -125 -123 -317t-49 -344q0 -297 230 -297q305 0 436 545q47 195 47 340zM1204 986q0 -198 -59 -407q-59 -210 -156 -348q-176 -252 -467 -251q-201 0 -298 124t-97 322t59 403t158 345q182 256 469 256q201 0 296 -123
t95 -321z" />
    <glyph glyph-name="P" unicode="P" 
d="M930 1112q0 205 -248 205q-98 0 -174 -29l-121 -588q51 -8 123 -8q236 0 340 152q80 114 80 268zM1110 1104q0 -193 -123 -338q-164 -190 -479 -191q-70 0 -146 11l-120 -586h-185l281 1352q156 78 362 78t308 -88t102 -238z" />
    <glyph glyph-name="Q" unicode="Q" horiz-adv-x="1249" 
d="M1022 1006q0 297 -221 297q-190 0 -320 -224q-74 -125 -123 -317t-49 -344q0 -297 230 -297q305 0 436 545q47 195 47 340zM1204 986q0 -198 -59 -407q-115 -410 -373 -540l176 -303l-168 -125l-127 387q-61 -18 -131 -18q-201 0 -298 124t-97 322t59 403t158 345
q182 256 469 256q201 0 296 -123t95 -321z" />
    <glyph glyph-name="R" unicode="R" horiz-adv-x="1126" 
d="M934 1108q0 211 -250 211q-94 0 -168 -31l-121 -586q41 -12 115 -12q211 0 321 123q103 111 103 295zM1120 1106q0 -197 -144 -341t-384 -144v-5l338 -616h-205l-336 659h-4l-137 -659h-185l281 1352q160 78 361 78t308 -87t107 -237z" />
    <glyph glyph-name="S" unicode="S" horiz-adv-x="948" 
d="M682 1298q-133 0 -212 -92t-79 -209t152 -200q63 -35 128 -74t109 -105t43 -155q0 -182 -137 -333t-379 -150q-207 0 -315 77l71 123q89 -59 231 -59t235 94t93 221t-146 211q-60 35 -122 74t-104 103q-43 64 -43 155q0 172 132 311t347 140q175 0 275 -78l-66 -111
q-80 57 -213 57z" />
    <glyph glyph-name="T" unicode="T" horiz-adv-x="874" 
d="M995 1409l-24 -127h-281l-264 -1282h-188l266 1282h-279l27 127h743z" />
    <glyph glyph-name="U" unicode="U" horiz-adv-x="1198" 
d="M129 307q0 41 10 96l209 1006h189l-209 -1006q-10 -47 -11 -79q1 -94 55 -146t158 -51q104 0 196 76q93 76 118 200l207 1006h172l-207 -1008q-37 -186 -180 -304q-144 -117 -328 -117t-282 90q-97 90 -97 237z" />
    <glyph glyph-name="V" unicode="V" horiz-adv-x="1093" 
d="M1229 1409l-701 -1409h-166l-129 1409h197l55 -999l7 -185h4q37 98 77 185l474 999h182z" />
    <glyph glyph-name="W" unicode="W" horiz-adv-x="1681" 
d="M1790 1409l-621 -1409h-165l-35 983l2 158h-4q-20 -72 -60 -158l-444 -983h-166l-37 1409h189l-9 -1026l-8 -160h4q27 78 64 160l456 1026h144l28 -1026l-4 -160h4q29 84 60 160l424 1026h178z" />
    <glyph glyph-name="X" unicode="X" horiz-adv-x="1067" 
d="M1171 1409l-491 -664l231 -745h-202l-154 586h-4l-408 -586h-200l536 729l-200 680h196l127 -535h4l379 535h186z" />
    <glyph glyph-name="Y" unicode="Y" horiz-adv-x="1050" 
d="M1188 1409l-549 -784l-129 -625h-188l129 625l-220 784h195l145 -637h4l424 637h189z" />
    <glyph glyph-name="Z" unicode="Z" horiz-adv-x="894" 
d="M995 1409l-770 -1282h520l-26 -127h-768l778 1282h-483l26 127h723z" />
    <glyph glyph-name="bracketleft" unicode="[" horiz-adv-x="712" 
d="M836 1608l-23 -107h-281l-378 -1833h278l-20 -108h-443l424 2048h443z" />
    <glyph glyph-name="backslash" unicode="\" horiz-adv-x="1179" 
d="M950 -406l-135 -59l-557 2036l135 61z" />
    <glyph glyph-name="bracketright" unicode="]" horiz-adv-x="712" 
d="M776 1608l-424 -2048h-442l22 108h281l377 1833h-279l23 107h442z" />
    <glyph glyph-name="asciicircum" unicode="^" horiz-adv-x="1191" 
d="M783 1425q56 0 87 -51l220 -395l-78 -66l-252 373l-404 -373l-61 66l383 395q49 51 105 51z" />
    <glyph glyph-name="underscore" unicode="_" 
d="M942 -287l-24 -116h-1123l25 116h1122z" />
    <glyph glyph-name="grave" unicode="`" horiz-adv-x="434" 
d="M297 1540q61 0 100 -35l88 -280h-94l-180 278q25 37 86 37z" />
    <glyph glyph-name="a" unicode="a" horiz-adv-x="1093" 
d="M719 1016q-195 0 -313 -191q-58 -90 -92 -216t-33 -238q0 -272 237 -273q109 0 172 35l176 852q-53 31 -147 31zM1057 1047l-205 -990q-135 -77 -342 -77t-308 106t-102 289q0 133 48 278t128 248q174 223 461 223q205 1 320 -77z" />
    <glyph glyph-name="b" unicode="b" horiz-adv-x="1085" 
d="M831 743q0 268 -215 269q-115 0 -196 -43l-172 -848q47 -25 141 -25q297 0 407 405q35 131 35 242zM1010 733q0 -133 -47 -279t-125 -249q-170 -225 -465 -225q-95 0 -185 22t-135 55l322 1551h178l-111 -541q90 49 239 49t239 -102t90 -281z" />
    <glyph glyph-name="c" unicode="c" horiz-adv-x="860" 
d="M680 999q-174 0 -281 -178q-51 -86 -83 -209q-32 -124 -32 -240t51 -187q50 -71 149 -71t180 60l24 -117q-94 -77 -251 -77t-245 112t-88 297q0 125 41 263t109 239q156 233 403 233q79 0 145 -24t95 -53l-68 -97q-66 49 -149 49z" />
    <glyph glyph-name="d" unicode="d" 
d="M276 371q0 -272 240 -273q106 0 170 35l180 862q-61 18 -131 19q-209 0 -334 -195q-57 -88 -91 -213t-34 -235zM715 1118q94 0 172 -24l104 514h180l-321 -1551q-136 -77 -340 -77t-308 105q-103 105 -104 290q0 131 46 273t122 243q172 227 449 227z" />
    <glyph glyph-name="e" unicode="e" horiz-adv-x="1073" 
d="M852 795q0 215 -193 215q-176 0 -288 -195q-55 -102 -82 -235l547 82q16 82 16 133zM1014 770q0 -92 -23 -188l-715 -101q-47 -373 256 -372q152 0 287 67l23 -119q-144 -77 -336 -77t-299 99q-106 99 -107 296q0 125 41 264t109 242q162 244 428 243q160 0 248 -90
t88 -264z" />
    <glyph glyph-name="f" unicode="f" horiz-adv-x="643" 
d="M766 1610q31 0 45 -2l-25 -115q-74 2 -144 -50t-93 -165l-35 -174h193l-23 -111h-195l-204 -993h-181l205 993h-125l23 111h127l31 156q35 178 147 264q113 86 254 86z" />
    <glyph glyph-name="g" unicode="g" horiz-adv-x="1085" 
d="M715 1016q-201 0 -324 -211q-53 -92 -87 -221t-34 -238q0 -252 230 -252q106 0 186 45l176 848q-49 29 -147 29zM315 -461q-203 0 -329 78l73 111q95 -58 243 -58t233 80q84 80 112 207l19 76q-90 -47 -238 -47t-241 101t-93 278q0 127 45 270t119 246q174 244 473 243
q203 1 318 -75l-222 -1072q-43 -209 -176 -323t-336 -115z" />
    <glyph glyph-name="h" unicode="h" horiz-adv-x="1093" 
d="M1010 866q0 -45 -9 -86l-161 -780h-181l164 791q6 31 6 59q0 160 -180 160q-111 0 -229 -62l-199 -948h-180l334 1608h180l-115 -555q128 71 272 71t221 -68t77 -190z" />
    <glyph glyph-name="i" unicode="i" horiz-adv-x="485" 
d="M457 1104l-228 -1104h-180l230 1104h178zM539 1427q0 -40 -39 -76t-84 -36q-45 1 -69 23q-23 22 -23 62t38 77t82 37t70 -24q26 -23 25 -63z" />
    <glyph glyph-name="j" unicode="j" horiz-adv-x="497" 
d="M469 1104l-211 -1020q-45 -215 -188 -355t-355 -182l27 129q125 42 213 146t119 248l215 1034h180zM551 1427q0 -40 -38 -76t-83 -36q-45 1 -70 23q-24 22 -24 62t39 77t83 37t68 -24q24 -23 25 -63z" />
    <glyph glyph-name="k" unicode="k" horiz-adv-x="976" 
d="M1049 1104l-535 -522l352 -582h-202l-314 569h-4l-119 -569h-176l334 1608h176l-209 -1016h4l498 512h195z" />
    <glyph glyph-name="l" unicode="l" horiz-adv-x="491" 
d="M563 1608l-334 -1608h-178l334 1608h178z" />
    <glyph glyph-name="m" unicode="m" horiz-adv-x="1712" 
d="M961 991q147 133 393 133q132 0 205 -69q71 -70 71 -185q0 -27 -8 -75l-164 -795h-180l166 795q6 33 6 65q0 147 -176 148q-145 0 -248 -107l-186 -901h-181l168 803q4 18 4 53q0 152 -202 152q-109 0 -205 -37l-203 -971h-180l217 1047q176 77 397 77t306 -133z" />
    <glyph glyph-name="n" unicode="n" horiz-adv-x="1093" 
d="M1012 866q0 -47 -8 -82l-164 -784h-181l166 795q6 35 6 63q0 150 -194 150q-113 0 -213 -37l-203 -971h-180l217 1047q172 77 379 77t291 -70t84 -188z" />
    <glyph glyph-name="o" unicode="o" horiz-adv-x="1083" 
d="M834 782q0 228 -176 228t-277 -203q-45 -92 -77 -229t-32 -242q0 -231 183 -232q245 0 346 433q33 141 33 245zM1006 776q0 -150 -40 -298t-106 -253q-156 -246 -422 -245q-170 0 -255 100t-85 250t40 298t106 253q152 244 422 243q170 0 255 -99t85 -249z" />
    <glyph glyph-name="p" unicode="p" horiz-adv-x="1085" 
d="M831 756q0 258 -239 258q-90 0 -166 -33l-180 -864q45 -20 125 -21q217 0 342 207q53 88 86 215q32 127 32 238zM1008 733q0 -127 -44 -267t-116 -241q-172 -242 -455 -241q-102 0 -170 26l-94 -450h-178l309 1487q152 77 348 77t298 -104t102 -287z" />
    <glyph glyph-name="q" unicode="q" horiz-adv-x="1085" 
d="M717 1016q-295 0 -410 -427q-35 -130 -35 -239q0 -254 228 -254q111 0 188 43l174 848q-49 29 -145 29zM423 -16q-149 0 -238 101t-89 280q0 129 44 271t118 245q174 244 477 243q199 1 318 -77l-310 -1487h-176l99 473q-94 -49 -243 -49z" />
    <glyph glyph-name="r" unicode="r" horiz-adv-x="665" 
d="M748 1120l-70 -137q-170 37 -256 -14l-201 -969h-180l217 1047q160 78 412 77q25 0 78 -4z" />
    <glyph glyph-name="s" unicode="s" horiz-adv-x="829" 
d="M696 373q0 -160 -123 -277q-123 -116 -308 -116t-283 77l69 113q72 -59 193 -59q122 -1 194 71t72 170t-120 158q-50 26 -101 52t-86 78t-35 128q0 141 111 249t273 108t255 -78l-64 -99q-63 56 -167 56t-168 -64q-66 -64 -66 -156q0 -93 125 -151q51 -25 103 -53t89 -79
q37 -52 37 -128z" />
    <glyph glyph-name="t" unicode="t" horiz-adv-x="661" 
d="M336 217q0 -106 106 -106q20 0 58 10l-23 -117q-45 -16 -102 -16q-115 0 -168 58t-53 151q0 43 8 75l147 721h-125l23 111h127l51 254l195 55l-66 -309h191l-25 -111h-191l-147 -721q-6 -29 -6 -55z" />
    <glyph glyph-name="u" unicode="u" horiz-adv-x="1073" 
d="M102 244q0 55 11 98l157 762h181l-160 -768q-8 -33 -8 -76q0 -154 186 -154q123 0 203 35l198 963h181l-217 -1047q-141 -78 -390 -77q-342 0 -342 264z" />
    <glyph glyph-name="v" unicode="v" horiz-adv-x="1019" 
d="M1079 1104l-585 -1104h-164l-137 1104h186l70 -793l2 -133h4q14 59 51 133l399 793h174z" />
    <glyph glyph-name="w" unicode="w" horiz-adv-x="1601" 
d="M889 918h-4q-16 -61 -49 -130l-390 -788h-157l-84 1104h178l29 -793l-4 -131h4q14 53 53 131l389 793h154l53 -793v-131h4q20 70 49 133l363 791h170l-543 -1104h-158l-57 788v130z" />
    <glyph glyph-name="x" unicode="x" horiz-adv-x="978" 
d="M1014 1104l-422 -524l225 -580h-188l-150 446h-4l-332 -446h-192l463 575l-197 529h178l133 -402h4l304 402h178z" />
    <glyph glyph-name="y" unicode="y" horiz-adv-x="1021" 
d="M444 172h5q16 61 55 137l401 795h174l-825 -1544h-195l273 442l-139 1102h188l63 -795v-137z" />
    <glyph glyph-name="z" unicode="z" horiz-adv-x="862" 
d="M885 1104l-658 -991h467l-22 -113h-711l666 993h-426l24 111h660z" />
    <glyph glyph-name="braceleft" unicode="{" horiz-adv-x="770" 
d="M416 498q0 -41 -8 -76l-76 -363q-8 -35 -8 -73q0 -147 186 -148l-23 -100q-322 0 -321 250q0 41 8 80l74 354q8 39 8 82q0 115 -123 121l21 100q160 8 198 201l82 393q33 161 146 225t297 64l-21 -99q-110 0 -176 -43t-88 -149l-80 -391q-27 -128 -81 -180t-140 -70v-4
q125 -31 125 -174z" />
    <glyph glyph-name="bar" unicode="|" horiz-adv-x="452" 
d="M528 1608l-424 -2048h-149l424 2048h149z" />
    <glyph glyph-name="braceright" unicode="}" horiz-adv-x="770" 
d="M418 848q0 31 10 78l78 372q8 33 8 70q0 74 -45 108t-143 33l20 99q148 0 236 -60t88 -186q0 -43 -8 -78l-74 -358q-10 -51 -10 -82q-1 -113 124 -119l-20 -100q-158 -8 -199 -203l-82 -385q-35 -168 -145 -234t-299 -65l20 100q223 0 265 197l82 387q27 121 80 177
q54 56 139 73v4q-125 29 -125 172z" />
    <glyph glyph-name="asciitilde" unicode="~" horiz-adv-x="1193" 
d="M807 557q-74 0 -173 66t-169 65q-123 0 -213 -139l-45 108q98 164 258 164q82 1 181 -65t165 -66t110 36t87 108l51 -113q-78 -164 -252 -164z" />
    <glyph glyph-name="nbspace" unicode="&#xa0;" horiz-adv-x="565" 
 />
    <glyph glyph-name="exclamdown" unicode="&#xa1;" horiz-adv-x="612" 
d="M393 506l-157 -946h-213l235 946h135zM416 977q50 -1 76 -27t26 -73t-44 -91t-93 -43q-49 0 -76 26t-27 73t45 91q44 44 93 44z" />
    <glyph glyph-name="cent" unicode="&#xa2;" 
d="M776 1083q-145 0 -244 -114q-61 -72 -96 -185t-35 -215q0 -233 211 -233q111 0 179 49l22 -109q-86 -59 -233 -61l-29 -215h-125l66 219q-123 17 -195 107t-72 228t49 270t134 220q123 129 286 148l27 215h125l-60 -213q137 -4 203 -59l-57 -95q-53 43 -156 43z" />
    <glyph glyph-name="sterling" unicode="&#xa3;" 
d="M871 1300q-132 0 -219 -80t-110 -196q-23 -114 -12 -242h279l-23 -106h-256q5 -204 -96 -380q-57 -101 -98 -146h590l-31 -150h-836q252 244 301 487q16 86 15 189h-199l23 106h168q-16 154 10 277q33 164 163 267t328 104q86 0 165 -22t120 -50l-66 -109q-84 51 -216 51
z" />
    <glyph glyph-name="currency" unicode="&#xa4;" 
d="M848 754q0 92 -56 151t-166 59t-207 -98t-97 -223q0 -90 56 -148q56 -59 164 -59t206 98q100 98 100 220zM971 770q0 -172 -133 -305l120 -150l-81 -63l-117 147q-117 -80 -243 -80t-214 76l-174 -143l-66 76l175 145q-41 70 -41 160q0 166 133 299l-119 149l78 66
l121 -150q120 80 246 80t212 -76l172 144l66 -78l-172 -145q37 -68 37 -152z" />
    <glyph glyph-name="yen" unicode="&#xa5;" 
d="M1196 1409l-356 -508l225 14l-18 -92l-248 17l-144 -205l355 14l-19 -94l-352 20l-119 -575h-176l119 575l-363 -20l19 94l352 -14l-59 205l-256 -17l20 92l219 -14l-143 508h184l148 -653h4l430 653h178z" />
    <glyph glyph-name="brokenbar" unicode="&#xa6;" horiz-adv-x="452" 
d="M272 369l-168 -809h-149l166 809h151zM528 1608l-166 -809h-151l168 809h149z" />
    <glyph glyph-name="section" unicode="&#xa7;" 
d="M776 492q0 106 -82 190l-141 145q-115 -61 -179 -133t-65 -182q0 -110 90 -201l133 -133q119 66 182 136q62 72 62 178zM932 516q0 -139 -88 -237t-240 -179q96 -104 96 -227t-108 -228t-275 -105q-168 0 -268 77l68 107q68 -60 175 -60t175 62t68 144q0 83 -78 161
l-176 178q-117 117 -117 265t84 245q84 98 241 184q-79 92 -79 213t102 217q102 97 258 97t246 -78l-62 -95q-76 55 -168 55t-154 -56q-62 -58 -62 -145t96 -185l137 -140q129 -131 129 -270z" />
    <glyph glyph-name="dieresis" unicode="&#xa8;" horiz-adv-x="434" 
d="M235 1440q38 0 59 -22t21 -57q1 -36 -33 -68q-34 -31 -73 -31t-61 20t-22 56t36 69q35 33 73 33zM573 1440q38 0 60 -22t22 -57q1 -36 -33 -68q-34 -31 -73 -31t-61 20t-22 56t35 69q34 33 72 33z" />
    <glyph glyph-name="copyright" unicode="&#xa9;" horiz-adv-x="1703" 
d="M966 1051q-154 0 -280 -129q-127 -129 -127 -287q0 -115 75 -190t191 -74q160 0 281 125l65 -60q-162 -156 -358 -155q-156 0 -253 99t-97 247q0 195 160 353t354 157q100 0 178 -43t119 -113l-70 -55q-84 125 -238 125zM1538 834q0 223 -142 368q-142 146 -356 146
t-394 -109q-181 -109 -292 -289q-110 -180 -110 -389t143 -353t371 -145q300 0 540 236t240 535zM1632 854q0 -238 -126 -437q-126 -200 -330 -319t-424 -118q-264 0 -433 167q-167 169 -167 405t124 437q125 201 329 321t425 120q264 0 433 -169t169 -407z" />
    <glyph glyph-name="ordfeminine" unicode="&#xaa;" horiz-adv-x="765" 
d="M588 1337q-117 0 -195 -118q-78 -123 -78 -290t146 -167q68 0 104 20l111 539q-33 16 -88 16zM455 670q-135 0 -205 70t-70 176q0 207 115 360q117 150 307 149q139 0 217 -55l-135 -647q-94 -53 -229 -53z" />
    <glyph glyph-name="guillemotleft" unicode="&#xab;" horiz-adv-x="1032" 
d="M631 1061l-344 -387l176 -373l-107 -61l-209 446l392 444zM1008 1061l-342 -387l176 -373l-107 -61l-209 446l392 444z" />
    <glyph glyph-name="logicalnot" unicode="&#xac;" 
d="M965 748l-93 -451h-131l68 328h-657l26 123h787z" />
    <glyph glyph-name="registered" unicode="&#xae;" horiz-adv-x="1703" 
d="M1102 963q0 117 -166 116q-51 0 -105 -16l-65 -315h84q108 0 180 58t72 157zM1200 969q0 -123 -90 -199t-223 -84l209 -397h-109l-201 393h-32l-82 -393h-97l173 827q92 43 204 43t180 -51t68 -139zM1538 834q0 223 -142 368q-142 146 -356 146t-394 -109
q-181 -109 -292 -289q-110 -180 -110 -389t143 -353t371 -145q300 0 540 236t240 535zM1632 854q0 -238 -126 -437q-126 -200 -330 -319t-424 -118q-264 0 -433 167q-167 169 -167 405t124 437q125 201 329 321t425 120q264 0 433 -169t169 -407z" />
    <glyph glyph-name="macron" unicode="&#xaf;" horiz-adv-x="434" 
d="M692 1393l-22 -103h-580l23 103h579z" />
    <glyph glyph-name="degree" unicode="&#xb0;" horiz-adv-x="878" 
d="M354 1092q0 -180 176 -179q88 0 168 79t80 165t-45 134t-132 48q-87 1 -167 -79t-80 -168zM881 1184q0 -141 -114 -254t-263 -113q-110 0 -182 70t-72 174q0 143 115 256t262 113q111 0 183 -70t71 -176z" />
    <glyph glyph-name="plusminus" unicode="&#xb1;" 
d="M887 264l-25 -117h-784l22 117h787zM1012 864l-25 -119h-330l-73 -354h-129l73 354h-327l24 119h328l72 350h129l-72 -350h330z" />
    <glyph glyph-name="twosuperior" unicode="&#xb2;" horiz-adv-x="765" 
d="M758 1237q0 -125 -164 -297l-272 -287h329l-22 -110h-541l408 446q121 133 120 225q0 106 -137 107q-80 0 -157 -37l-17 92q104 47 218 47q115 0 175 -51t60 -135z" />
    <glyph glyph-name="threesuperior" unicode="&#xb3;" horiz-adv-x="765" 
d="M741 1257q0 -76 -50 -137t-132 -90q133 -47 133 -177t-92 -226q-92 -97 -244 -97t-229 50l55 90q60 -37 158 -37t156 61q57 62 57 142q0 147 -209 133l16 84q104 6 177 55q72 49 71 129q0 90 -116 90q-74 0 -156 -39l-19 86q98 49 203 49t163 -45t58 -121z" />
    <glyph glyph-name="acute" unicode="&#xb4;" horiz-adv-x="434" 
d="M563 1540q68 0 78 -37l-297 -278h-106l200 280q57 35 125 35z" />
    <glyph glyph-name="mu" unicode="&#xb5;" horiz-adv-x="1075" 
d="M1053 1104l-217 -1047q-150 -78 -357 -77q-65 0 -137 24t-109 51l-102 -495h-180l319 1544h181l-195 -944q27 -23 89 -42q61 -20 155 -20t172 37l200 969h181z" />
    <glyph glyph-name="paragraph" unicode="&#xb6;" 
d="M209 950q0 170 103 304q52 69 148 112t222 43h504l-21 -92h-69l-365 -1757h-129l365 1757h-260l-365 -1757h-129l227 1106q-111 24 -171 108t-60 176z" />
    <glyph glyph-name="periodcentered" unicode="&#xb7;" horiz-adv-x="501" 
d="M309 821q49 1 76 -25t27 -73t-44 -91t-94 -44t-76 26t-26 72q0 47 44 91t93 44z" />
    <glyph glyph-name="cedilla" unicode="&#xb8;" horiz-adv-x="434" 
d="M324 -231q0 -84 -94 -131t-287 -48q-78 0 -176 9l55 69q53 -4 104 -4q260 0 260 94q0 55 -141 56q-37 0 -106 -4l53 63q98 6 108 6q224 1 224 -110z" />
    <glyph glyph-name="onesuperior" unicode="&#xb9;" horiz-adv-x="765" 
d="M676 1409l-178 -866h-133l143 696q-88 -29 -227 -39v76q102 14 183 51t120 82h92z" />
    <glyph glyph-name="ordmasculine" unicode="&#xba;" horiz-adv-x="765" 
d="M692 1194q0 147 -123 147q-163 0 -231 -251q-27 -100 -27 -179q0 -147 123 -147q165 0 232 250q26 100 26 180zM821 1180q0 -108 -35 -213q-35 -106 -96 -176q-104 -121 -264 -121q-125 0 -185 70q-61 70 -61 176t34 210q98 299 361 299q125 0 186 -68q60 -69 60 -177z
" />
    <glyph glyph-name="guillemotright" unicode="&#xbb;" horiz-adv-x="1032" 
d="M580 682l-392 -442l-92 67l344 387l-176 373l105 63zM958 682l-391 -442l-92 67l342 387l-174 373l105 63z" />
    <glyph glyph-name="onequarter" unicode="&#xbc;" horiz-adv-x="1646" 
d="M1307 729h-4q-33 -53 -76 -108l-269 -345h250l74 347zM1456 866l-123 -590h70l-17 -83h-69l-41 -193h-123l41 193h-352l18 86l471 587h125zM1343 1401l-972 -1440l-99 49l967 1436zM612 1409l-178 -866h-133l143 696q-88 -29 -227 -39v76q102 14 183 51t120 82h92z" />
    <glyph glyph-name="onehalf" unicode="&#xbd;" horiz-adv-x="1646" 
d="M1483 694q0 -125 -164 -297l-270 -286h327l-22 -111h-539l406 446q123 135 122 226q0 106 -137 106q-72 0 -153 -37l-17 93q102 47 214 47q112 1 172 -51t61 -136zM1307 1401l-971 -1440l-100 49l970 1436zM621 1409l-179 -866h-133l144 696q-88 -29 -228 -39v76
q101 14 183 51t120 82h93z" />
    <glyph glyph-name="threequarters" unicode="&#xbe;" horiz-adv-x="1646" 
d="M1346 729h-5q-31 -53 -73 -108l-269 -345h248l74 347zM1495 866l-123 -590h70l-17 -83h-69l-39 -193h-125l41 193h-350l16 86l471 587h125zM1448 1401l-973 -1440l-100 49l971 1436zM741 1257q0 -76 -50 -137t-132 -90q133 -47 133 -177t-92 -226q-92 -97 -244 -97
t-229 50l55 90q60 -37 158 -37t156 61q57 62 57 142q0 147 -209 133l16 84q104 6 177 55q72 49 71 129q0 90 -116 90q-74 0 -156 -39l-19 86q98 49 203 49t163 -45t58 -121z" />
    <glyph glyph-name="questiondown" unicode="&#xbf;" horiz-adv-x="821" 
d="M291 -459q-164 0 -252 69t-88 207t107 242q108 104 266 152l84 297h135l-45 -356q-146 -35 -252 -115t-107 -209q0 -158 205 -158q113 0 223 56l33 -107q-145 -78 -309 -78zM565 981q49 1 76 -25t27 -73t-45 -91t-95 -44t-76 26t-26 72q0 47 45 91t94 44z" />
    <glyph glyph-name="Agrave" unicode="&#xc0;" horiz-adv-x="1200" 
d="M817 535l-53 534l-10 170h-4q-23 -72 -74 -170l-281 -534h422zM1057 0h-189l-45 422h-483l-223 -422h-183l768 1409h172zM678 1831q61 0 100 -35l88 -280h-94l-180 278q25 37 86 37z" />
    <glyph glyph-name="Aacute" unicode="&#xc1;" horiz-adv-x="1200" 
d="M1058 1831q69 0 77 -37l-297 -278h-107l201 280q57 35 126 35zM817 535l-53 534l-10 170h-4q-23 -72 -74 -170l-281 -534h422zM1057 0h-189l-45 422h-483l-223 -422h-183l768 1409h172z" />
    <glyph glyph-name="Acircumflex" unicode="&#xc2;" horiz-adv-x="1200" 
d="M817 535l-53 534l-10 170h-4q-23 -72 -74 -170l-281 -534h422zM1057 0h-189l-45 422h-483l-223 -422h-183l768 1409h172zM868 1794q36 0 62 -31l160 -204l-58 -48l-182 164l-248 -164l-51 48l244 204q37 31 73 31z" />
    <glyph glyph-name="Atilde" unicode="&#xc3;" horiz-adv-x="1200" 
d="M817 535l-53 534l-10 170h-4q-23 -72 -74 -170l-281 -534h422zM1057 0h-189l-45 422h-483l-223 -422h-183l768 1409h172zM950 1542q-48 0 -116 40t-113 40q-78 0 -133 -88l-47 80q63 115 182 115q51 0 116 -42t103 -42q86 0 133 86l51 -78q-59 -111 -176 -111z" />
    <glyph glyph-name="Adieresis" unicode="&#xc4;" horiz-adv-x="1200" 
d="M817 535l-53 534l-10 170h-4q-23 -72 -74 -170l-281 -534h422zM1057 0h-189l-45 422h-483l-223 -422h-183l768 1409h172zM679 1729q37 1 59 -21t22 -58t-34 -68t-73 -32t-61 20t-21 57q0 36 35 69t73 33zM1017 1729q39 1 61 -21t22 -58t-34 -68t-73 -32t-61 20t-21 57
q0 36 34 69t72 33z" />
    <glyph glyph-name="Aring" unicode="&#xc5;" horiz-adv-x="1200" 
d="M940 1693q0 85 -78 85q-40 0 -78 -40q-36 -40 -36 -79t20 -62t60 -23t76 40q36 39 36 79zM676 1652q0 66 59 128t129 61q70 0 108 -39q40 -38 40 -104t-58 -126t-130 -60q-70 0 -109 37t-39 103zM817 535l-53 534l-10 170h-4q-23 -72 -74 -170l-281 -534h422zM1057 0
h-189l-45 422h-483l-223 -422h-183l768 1409h172z" />
    <glyph glyph-name="AE" unicode="&#xc6;" horiz-adv-x="1523" 
d="M815 537l-55 583l-4 131h-4q-18 -61 -58 -133l-307 -581h428zM1454 1409l-24 -127h-541l57 -491h393l-24 -125h-354l65 -539h383l-27 -127h-520l-41 422h-493l-226 -422h-180l778 1409h754z" />
    <glyph glyph-name="Ccedilla" unicode="&#xc7;" horiz-adv-x="983" 
d="M653 -231q0 -84 -94 -131t-287 -48q-78 0 -176 9l56 69q53 -4 104 -4q260 0 260 94q0 55 -141 56q-37 0 -107 -4l54 63q98 6 108 6q223 1 223 -110zM844 1296q-162 0 -278 -129t-180 -323t-64 -365q0 -356 260 -356q117 0 209 59l28 -125q-103 -77 -293 -77t-295 135
q-104 135 -104 354t83 439t228 358q174 164 391 164q166 0 256 -78l-71 -105q-70 49 -170 49z" />
    <glyph glyph-name="Egrave" unicode="&#xc8;" horiz-adv-x="913" 
d="M1001 1409l-26 -127h-465l-100 -491h415l-24 -125h-418l-111 -539h465l-26 -127h-654l291 1409h653zM595 1831q62 0 101 -35l88 -280h-94l-180 278q23 37 85 37z" />
    <glyph glyph-name="Eacute" unicode="&#xc9;" horiz-adv-x="913" 
d="M931 1831q69 0 77 -37l-297 -278h-107l201 280q57 35 126 35zM1001 1409l-26 -127h-465l-100 -491h415l-24 -125h-418l-111 -539h465l-26 -127h-654l291 1409h653z" />
    <glyph glyph-name="Ecircumflex" unicode="&#xca;" horiz-adv-x="913" 
d="M1001 1409l-26 -127h-465l-100 -491h415l-24 -125h-418l-111 -539h465l-26 -127h-654l291 1409h653zM744 1794q36 0 61 -31l160 -204l-58 -48l-182 164l-248 -164l-51 48l244 204q38 31 74 31z" />
    <glyph glyph-name="Edieresis" unicode="&#xcb;" horiz-adv-x="913" 
d="M1001 1409l-26 -127h-465l-100 -491h415l-24 -125h-418l-111 -539h465l-26 -127h-654l291 1409h653zM558 1729q38 1 60 -21t21 -58q0 -36 -34 -68t-73 -32q-38 0 -60 20t-22 57q0 36 35 69t73 33zM896 1729q38 1 60 -21t23 -58q0 -36 -34 -68t-73 -32q-38 0 -60 20
t-22 57q0 36 34 69t72 33z" />
    <glyph glyph-name="Igrave" unicode="&#xcc;" horiz-adv-x="528" 
d="M389 1831q61 0 100 -35l89 -280h-95l-180 278q25 37 86 37zM545 1409l-291 -1409h-191l291 1409h191z" />
    <glyph glyph-name="Iacute" unicode="&#xcd;" horiz-adv-x="528" 
d="M689 1831q69 0 77 -37l-297 -278h-107l201 280q57 35 126 35zM545 1409l-291 -1409h-191l291 1409h191z" />
    <glyph glyph-name="Icircumflex" unicode="&#xce;" horiz-adv-x="528" 
d="M528 1794q36 0 62 -31l160 -204l-58 -48l-182 164l-248 -164l-51 48l244 204q37 31 73 31zM545 1409l-291 -1409h-191l291 1409h191z" />
    <glyph glyph-name="Idieresis" unicode="&#xcf;" horiz-adv-x="528" 
d="M341 1729q37 1 59 -21t22 -58t-34 -68t-73 -32t-61 20t-21 57q0 36 35 69t73 33zM679 1729q39 1 61 -21t22 -58t-34 -68t-73 -32t-61 20t-21 57q0 36 34 69t72 33zM545 1409l-291 -1409h-191l291 1409h191z" />
    <glyph glyph-name="Eth" unicode="&#xd0;" horiz-adv-x="1271" 
d="M1040 975q0 334 -301 334q-109 0 -188 -29l-96 -467h237l-22 -102h-236l-119 -574q68 -27 164 -26q227 0 363 188q86 117 142 317t56 359zM1227 940q0 -180 -70 -392t-180 -343q-193 -225 -520 -225q-101 0 -197 22t-147 55l135 654h-123l22 102h123l113 539
q162 78 385 78t341 -132t118 -358z" />
    <glyph glyph-name="Ntilde" unicode="&#xd1;" horiz-adv-x="1331" 
d="M1356 1409l-291 -1409h-158l-389 1026l-57 172h-4q-10 -84 -29 -174l-213 -1024h-158l291 1409h193l374 -989l50 -150h4q8 68 26 156l203 983h158zM1014 1542q-49 0 -117 40t-113 40q-78 0 -133 -88l-47 80q63 115 182 115q51 0 116 -42t104 -42q86 0 133 86l51 -78
q-59 -111 -176 -111z" />
    <glyph glyph-name="Ograve" unicode="&#xd2;" horiz-adv-x="1249" 
d="M737 1831q61 0 101 -35l88 -280h-95l-180 278q25 37 86 37zM1022 1006q0 297 -221 297q-190 0 -320 -224q-74 -125 -123 -317t-49 -344q0 -297 230 -297q305 0 436 545q47 195 47 340zM1204 986q0 -198 -59 -407q-59 -210 -156 -348q-176 -252 -467 -251q-201 0 -298 124
t-97 322t59 403t158 345q182 256 469 256q201 0 296 -123t95 -321z" />
    <glyph glyph-name="Oacute" unicode="&#xd3;" horiz-adv-x="1249" 
d="M1054 1831q68 0 76 -37l-296 -278h-107l201 280q58 35 126 35zM1022 1006q0 297 -221 297q-190 0 -320 -224q-74 -125 -123 -317t-49 -344q0 -297 230 -297q305 0 436 545q47 195 47 340zM1204 986q0 -198 -59 -407q-59 -210 -156 -348q-176 -252 -467 -251
q-201 0 -298 124t-97 322t59 403t158 345q182 256 469 256q201 0 296 -123t95 -321z" />
    <glyph glyph-name="Ocircumflex" unicode="&#xd4;" horiz-adv-x="1249" 
d="M889 1794q37 0 61 -31l160 -204l-57 -48l-183 164l-247 -164l-52 48l244 204q37 31 74 31zM1022 1006q0 297 -221 297q-190 0 -320 -224q-74 -125 -123 -317t-49 -344q0 -297 230 -297q305 0 436 545q47 195 47 340zM1204 986q0 -198 -59 -407q-59 -210 -156 -348
q-176 -252 -467 -251q-201 0 -298 124t-97 322t59 403t158 345q182 256 469 256q201 0 296 -123t95 -321z" />
    <glyph glyph-name="Otilde" unicode="&#xd5;" horiz-adv-x="1249" 
d="M983 1542q-49 0 -117 40t-112 40q-78 0 -133 -88l-48 80q61 115 183 115q52 0 116 -42t103 -42q84 0 133 86l51 -78q-59 -111 -176 -111zM1022 1006q0 297 -221 297q-190 0 -320 -224q-74 -125 -123 -317t-49 -344q0 -297 230 -297q305 0 436 545q47 195 47 340z
M1204 986q0 -198 -59 -407q-59 -210 -156 -348q-176 -252 -467 -251q-201 0 -298 124t-97 322t59 403t158 345q182 256 469 256q201 0 296 -123t95 -321z" />
    <glyph glyph-name="Odieresis" unicode="&#xd6;" horiz-adv-x="1249" 
d="M782 1648q0 -36 -34 -68t-72 -32q-39 0 -61 20q-21 20 -21 57q0 36 35 69q35 32 73 32t59 -21t21 -57zM1122 1648q0 -36 -34 -68t-72 -32q-39 0 -61 20q-21 20 -21 57q0 36 34 69q34 32 72 32t60 -21t22 -57zM1022 1006q0 297 -221 297q-190 0 -320 -224
q-74 -125 -123 -317t-49 -344q0 -297 230 -297q305 0 436 545q47 195 47 340zM1204 986q0 -198 -59 -407q-59 -210 -156 -348q-176 -252 -467 -251q-201 0 -298 124t-97 322t59 403t158 345q182 256 469 256q201 0 296 -123t95 -321z" />
    <glyph glyph-name="multiply" unicode="&#xd7;" 
d="M893 330l-25 -113h-790l24 113h791zM1006 874l-23 -108l-854 -301l29 131l690 231l-594 232l22 117z" />
    <glyph glyph-name="Oslash" unicode="&#xd8;" horiz-adv-x="1249" 
d="M1040 1010q0 27 -4 75l-708 -837q51 -139 213 -139q315 0 452 558q47 191 47 343zM303 412q0 -41 6 -78l707 837q-51 145 -207 146q-199 0 -330 -230q-80 -135 -128 -326t-48 -349zM1210 956q0 -168 -59 -377q-59 -210 -158 -348q-176 -252 -465 -251q-209 0 -309 139
l-143 -170l-56 45l160 188q-49 110 -49 276t60 371t159 345q182 256 467 256q203 0 303 -134l148 174l51 -47l-160 -190q51 -109 51 -277z" />
    <glyph glyph-name="Ugrave" unicode="&#xd9;" horiz-adv-x="1198" 
d="M743 1831q61 0 101 -35l88 -280h-94l-181 278q25 37 86 37zM129 307q0 41 10 96l209 1006h189l-209 -1006q-10 -47 -11 -79q1 -94 55 -146t158 -51q104 0 196 76q93 76 118 200l207 1006h172l-207 -1008q-37 -186 -180 -304q-144 -117 -328 -117t-282 90q-97 90 -97 237z
" />
    <glyph glyph-name="Uacute" unicode="&#xda;" horiz-adv-x="1198" 
d="M1033 1831q69 0 77 -37l-297 -278h-106l200 280q57 35 126 35zM129 307q0 41 10 96l209 1006h189l-209 -1006q-10 -47 -11 -79q1 -94 55 -146t158 -51q104 0 196 76q93 76 118 200l207 1006h172l-207 -1008q-37 -186 -180 -304q-144 -117 -328 -117t-282 90
q-97 90 -97 237z" />
    <glyph glyph-name="Ucircumflex" unicode="&#xdb;" horiz-adv-x="1198" 
d="M868 1794q36 0 62 -31l160 -204l-58 -48l-182 164l-248 -164l-51 48l244 204q37 31 73 31zM129 307q0 41 10 96l209 1006h189l-209 -1006q-10 -47 -11 -79q1 -94 55 -146t158 -51q104 0 196 76q93 76 118 200l207 1006h172l-207 -1008q-37 -186 -180 -304
q-144 -117 -328 -117t-282 90q-97 90 -97 237z" />
    <glyph glyph-name="Udieresis" unicode="&#xdc;" horiz-adv-x="1198" 
d="M685 1729q37 1 59 -21t22 -58t-34 -68t-73 -32t-61 20t-20 57q0 36 34 69q35 33 73 33zM1023 1729q39 1 61 -21t22 -58t-34 -68t-73 -32t-61 20t-20 57q0 36 33 69q34 33 72 33zM129 307q0 41 10 96l209 1006h189l-209 -1006q-10 -47 -11 -79q1 -94 55 -146t158 -51
q104 0 196 76q93 76 118 200l207 1006h172l-207 -1008q-37 -186 -180 -304q-144 -117 -328 -117t-282 90q-97 90 -97 237z" />
    <glyph glyph-name="Yacute" unicode="&#xdd;" horiz-adv-x="1050" 
d="M972 1831q69 0 77 -37l-297 -278h-107l201 280q57 35 126 35zM1188 1409l-549 -784l-129 -625h-188l129 625l-220 784h195l145 -637h4l424 637h189z" />
    <glyph glyph-name="Thorn" unicode="&#xde;" 
d="M866 854q0 223 -250 223q-74 0 -153 -22l-125 -600q66 -8 115 -9q201 0 307 116t106 292zM1049 860q0 -220 -154 -374t-453 -154q-41 0 -127 10l-71 -342h-187l291 1409h187l-52 -248q94 25 176 25q188 0 289 -87t101 -239z" />
    <glyph glyph-name="germandbls" unicode="&#xdf;" horiz-adv-x="1142" 
d="M803 1624q155 0 235 -88t80 -246t-84 -311q-112 -11 -188 -67t-76 -158q0 -52 37 -98t82 -78t82 -90q37 -60 37 -136q0 -147 -116 -257t-300 -109q-127 0 -195 49l60 110q45 -29 140 -29t167 66t72 166q0 58 -36 106t-78 78t-78 84q-36 55 -36 125q0 115 81 191t204 110
q61 121 61 279q0 186 -161 186q-129 -1 -215 -115t-125 -296l-228 -1096h-174l225 1085q40 202 163 362q63 81 157 129t207 48z" />
    <glyph glyph-name="agrave" unicode="&#xe0;" horiz-adv-x="1093" 
d="M655 1540q61 0 101 -35l88 -280h-94l-181 278q25 37 86 37zM719 1016q-195 0 -313 -191q-58 -90 -92 -216t-33 -238q0 -272 237 -273q109 0 172 35l176 852q-53 31 -147 31zM1057 1047l-205 -990q-135 -77 -342 -77t-308 106t-102 289q0 133 48 278t128 248
q174 223 461 223q205 1 320 -77z" />
    <glyph glyph-name="aacute" unicode="&#xe1;" horiz-adv-x="1093" 
d="M1006 1540q68 0 77 -37l-297 -278h-106l201 280q57 35 125 35zM719 1016q-195 0 -313 -191q-58 -90 -92 -216t-33 -238q0 -272 237 -273q109 0 172 35l176 852q-53 31 -147 31zM1057 1047l-205 -990q-135 -77 -342 -77t-308 106t-102 289q0 133 48 278t128 248
q174 223 461 223q205 1 320 -77z" />
    <glyph glyph-name="acircumflex" unicode="&#xe2;" horiz-adv-x="1093" 
d="M1024 1268l-57 -47l-183 163l-247 -163l-52 47l244 205q37 31 74 31t61 -31zM719 1016q-195 0 -313 -191q-58 -90 -92 -216t-33 -238q0 -272 237 -273q109 0 172 35l176 852q-53 31 -147 31zM1057 1047l-205 -990q-135 -77 -342 -77t-308 106t-102 289q0 133 48 278
t128 248q174 223 461 223q205 1 320 -77z" />
    <glyph glyph-name="atilde" unicode="&#xe3;" horiz-adv-x="1093" 
d="M877 1251q-49 0 -117 40t-113 40q-78 0 -133 -88l-47 80q61 115 182 115q51 0 116 -42t103 -42q84 0 133 86l52 -78q-59 -111 -176 -111zM719 1016q-195 0 -313 -191q-58 -90 -92 -216t-33 -238q0 -272 237 -273q109 0 172 35l176 852q-53 31 -147 31zM1057 1047
l-205 -990q-135 -77 -342 -77t-308 106t-102 289q0 133 48 278t128 248q174 223 461 223q205 1 320 -77z" />
    <glyph glyph-name="adieresis" unicode="&#xe4;" horiz-adv-x="1093" 
d="M628 1440q38 0 60 -22t21 -57q0 -36 -34 -68q-34 -31 -73 -31q-38 0 -60 20t-22 56t35 69t73 33zM966 1440q38 0 60 -22t23 -57q0 -36 -34 -68q-34 -31 -73 -31q-38 0 -60 20t-22 56t34 69t72 33zM719 1016q-195 0 -313 -191q-58 -90 -92 -216t-33 -238q0 -272 237 -273
q109 0 172 35l176 852q-53 31 -147 31zM1057 1047l-205 -990q-135 -77 -342 -77t-308 106t-102 289q0 133 48 278t128 248q174 223 461 223q205 1 320 -77z" />
    <glyph glyph-name="aring" unicode="&#xe5;" horiz-adv-x="1093" 
d="M690 1370q0 -84 81 -84q40 0 76 39t36 79q0 85 -79 85q-40 0 -77 -40t-37 -79zM954 1408q0 -66 -58 -125q-58 -60 -128 -60t-111 38q-39 37 -39 103t60 127t128 61q70 0 109 -39t39 -105zM719 1016q-195 0 -313 -191q-58 -90 -92 -216t-33 -238q0 -272 237 -273
q109 0 172 35l176 852q-53 31 -147 31zM1057 1047l-205 -990q-135 -77 -342 -77t-308 106t-102 289q0 133 48 278t128 248q174 223 461 223q205 1 320 -77z" />
    <glyph glyph-name="ae" unicode="&#xe6;" horiz-adv-x="1658" 
d="M221 253q0 -167 187 -167q94 0 172 57t98 156l65 322q-221 -27 -321 -77t-150 -127t-51 -164zM1438 801q0 207 -193 207q-125 0 -224 -106t-142 -320l542 80q17 86 17 139zM1602 776q0 -96 -23 -194l-713 -101q-29 -188 41 -281q69 -94 221 -94t279 64l23 -117
q-129 -74 -343 -73q-119 0 -203 53t-124 149q-70 -104 -157 -153t-231 -49t-229 66q-86 66 -86 190t75 224q74 100 216 166q142 64 416 91q23 113 22 131q0 160 -208 160q-127 0 -271 -68l-20 107q152 78 338 77q244 0 280 -198q70 100 166 149t197 49q160 0 247 -87
t87 -261z" />
    <glyph glyph-name="ccedilla" unicode="&#xe7;" horiz-adv-x="860" 
d="M555 -231q0 -84 -94 -131t-287 -48q-78 0 -176 9l55 69q53 -4 105 -4q260 0 260 94q0 55 -142 56q-37 0 -106 -4l53 63q98 6 109 6q223 1 223 -110zM680 999q-174 0 -281 -178q-51 -86 -83 -209q-32 -124 -32 -240t51 -187q50 -71 149 -71t180 60l24 -117
q-94 -77 -251 -77t-245 112t-88 297q0 125 41 263t109 239q156 233 403 233q79 0 145 -24t95 -53l-68 -97q-66 49 -149 49z" />
    <glyph glyph-name="egrave" unicode="&#xe8;" horiz-adv-x="1073" 
d="M600 1540q61 0 100 -35l88 -280h-94l-180 278q25 37 86 37zM852 795q0 215 -193 215q-176 0 -288 -195q-55 -102 -82 -235l547 82q16 82 16 133zM1014 770q0 -92 -23 -188l-715 -101q-47 -373 256 -372q152 0 287 67l23 -119q-144 -77 -336 -77t-299 99q-106 99 -107 296
q0 125 41 264t109 242q162 244 428 243q160 0 248 -90t88 -264z" />
    <glyph glyph-name="eacute" unicode="&#xe9;" horiz-adv-x="1073" 
d="M947 1540q69 0 77 -37l-297 -278h-106l200 280q57 35 126 35zM852 795q0 215 -193 215q-176 0 -288 -195q-55 -102 -82 -235l547 82q16 82 16 133zM1014 770q0 -92 -23 -188l-715 -101q-47 -373 256 -372q152 0 287 67l23 -119q-144 -77 -336 -77t-299 99
q-106 99 -107 296q0 125 41 264t109 242q162 244 428 243q160 0 248 -90t88 -264z" />
    <glyph glyph-name="ecircumflex" unicode="&#xea;" horiz-adv-x="1073" 
d="M977 1268l-57 -47l-183 163l-248 -163l-51 47l244 205q37 31 74 31t61 -31zM852 795q0 215 -193 215q-176 0 -288 -195q-55 -102 -82 -235l547 82q16 82 16 133zM1014 770q0 -92 -23 -188l-715 -101q-47 -373 256 -372q152 0 287 67l23 -119q-144 -77 -336 -77t-299 99
q-106 99 -107 296q0 125 41 264t109 242q162 244 428 243q160 0 248 -90t88 -264z" />
    <glyph glyph-name="edieresis" unicode="&#xeb;" horiz-adv-x="1073" 
d="M577 1440q38 0 59 -22t21 -57q1 -36 -33 -68q-34 -31 -73 -31t-61 20t-22 56t36 69q35 33 73 33zM915 1440q38 0 60 -22t22 -57q1 -36 -33 -68q-34 -31 -73 -31t-61 20t-22 56t35 69q34 33 72 33zM852 795q0 215 -193 215q-176 0 -288 -195q-55 -102 -82 -235l547 82
q16 82 16 133zM1014 770q0 -92 -23 -188l-715 -101q-47 -373 256 -372q152 0 287 67l23 -119q-144 -77 -336 -77t-299 99q-106 99 -107 296q0 125 41 264t109 242q162 244 428 243q160 0 248 -90t88 -264z" />
    <glyph glyph-name="igrave" unicode="&#xec;" horiz-adv-x="485" 
d="M303 1540q61 0 100 -35l89 -280h-95l-180 278q25 37 86 37zM459 1104l-230 -1104h-180l230 1104h180z" />
    <glyph glyph-name="iacute" unicode="&#xed;" horiz-adv-x="485" 
d="M608 1540q68 0 78 -37l-297 -278h-106l200 280q57 35 125 35zM459 1104l-230 -1104h-180l230 1104h180z" />
    <glyph glyph-name="icircumflex" unicode="&#xee;" horiz-adv-x="485" 
d="M666 1268l-58 -47l-182 163l-248 -163l-51 47l244 205q37 31 73 31t62 -31zM459 1104l-230 -1104h-180l230 1104h180z" />
    <glyph glyph-name="idieresis" unicode="&#xef;" horiz-adv-x="485" 
d="M259 1440q37 0 59 -22t22 -57q0 -36 -34 -68q-34 -31 -73 -31t-61 20t-20 56q0 36 34 69q35 33 73 33zM597 1440q39 0 61 -22t22 -57q0 -36 -34 -68q-34 -31 -73 -31t-61 20t-20 56q0 36 33 69q34 33 72 33zM459 1104l-230 -1104h-180l230 1104h180z" />
    <glyph glyph-name="eth" unicode="&#xf0;" horiz-adv-x="1085" 
d="M829 834q0 92 -12 155q-57 23 -141 23q-168 0 -279 -193q-51 -92 -86 -223t-35 -240q0 -254 197 -254q156 0 246 183q110 227 110 549zM1006 809q0 -158 -39 -322t-113 -282q-141 -229 -412 -230q-162 -1 -253 103t-91 287q0 131 44 276t118 250q158 225 408 225
q68 0 139 -22q-31 168 -80 286l-197 -57q-16 51 -34 78l192 57q-39 82 -63 119l145 45q37 -53 68 -119l180 53q8 -7 35 -75l-176 -54q129 -305 129 -618z" />
    <glyph glyph-name="ntilde" unicode="&#xf1;" horiz-adv-x="1093" 
d="M825 1251q-51 0 -119 40t-110 40q-78 0 -133 -88l-47 80q61 115 182 115q51 0 116 -42t103 -42q84 0 133 86l51 -78q-59 -111 -176 -111zM1012 866q0 -47 -8 -82l-164 -784h-181l166 795q6 35 6 63q0 150 -194 150q-113 0 -213 -37l-203 -971h-180l217 1047
q172 77 379 77t291 -70t84 -188z" />
    <glyph glyph-name="ograve" unicode="&#xf2;" horiz-adv-x="1083" 
d="M584 1540q61 0 100 -35l88 -280h-94l-180 278q25 37 86 37zM834 782q0 228 -176 228t-277 -203q-45 -92 -77 -229t-32 -242q0 -231 183 -232q245 0 346 433q33 141 33 245zM1006 776q0 -150 -40 -298t-106 -253q-156 -246 -422 -245q-170 0 -255 100t-85 250t40 298
t106 253q152 244 422 243q170 0 255 -99t85 -249z" />
    <glyph glyph-name="oacute" unicode="&#xf3;" horiz-adv-x="1083" 
d="M931 1540q69 0 77 -37l-297 -278h-107l201 280q57 35 126 35zM834 782q0 228 -176 228t-277 -203q-45 -92 -77 -229t-32 -242q0 -231 183 -232q245 0 346 433q33 141 33 245zM1006 776q0 -150 -40 -298t-106 -253q-156 -246 -422 -245q-170 0 -255 100t-85 250t40 298
t106 253q152 244 422 243q170 0 255 -99t85 -249z" />
    <glyph glyph-name="ocircumflex" unicode="&#xf4;" horiz-adv-x="1083" 
d="M967 1268l-58 -47l-182 163l-248 -163l-51 47l244 205q38 31 74 31t61 -31zM834 782q0 228 -176 228t-277 -203q-45 -92 -77 -229t-32 -242q0 -231 183 -232q245 0 346 433q33 141 33 245zM1006 776q0 -150 -40 -298t-106 -253q-156 -246 -422 -245q-170 0 -255 100
t-85 250t40 298t106 253q152 244 422 243q170 0 255 -99t85 -249z" />
    <glyph glyph-name="otilde" unicode="&#xf5;" horiz-adv-x="1083" 
d="M825 1251q-51 0 -119 40t-110 40q-78 0 -133 -88l-47 80q61 115 182 115q51 0 116 -42t103 -42q84 0 133 86l51 -78q-59 -111 -176 -111zM834 782q0 228 -176 228t-277 -203q-45 -92 -77 -229t-32 -242q0 -231 183 -232q245 0 346 433q33 141 33 245zM1006 776
q0 -150 -40 -298t-106 -253q-156 -246 -422 -245q-170 0 -255 100t-85 250t40 298t106 253q152 244 422 243q170 0 255 -99t85 -249z" />
    <glyph glyph-name="odieresis" unicode="&#xf6;" horiz-adv-x="1083" 
d="M558 1440q38 0 60 -22t21 -57q0 -36 -34 -68q-34 -31 -73 -31q-38 0 -60 20t-22 56t35 69t73 33zM896 1440q38 0 60 -22t23 -57q0 -36 -34 -68q-34 -31 -73 -31q-38 0 -60 20t-22 56t34 69t72 33zM834 782q0 228 -176 228t-277 -203q-45 -92 -77 -229t-32 -242
q0 -231 183 -232q245 0 346 433q33 141 33 245zM1006 776q0 -150 -40 -298t-106 -253q-156 -246 -422 -245q-170 0 -255 100t-85 250t40 298t106 253q152 244 422 243q170 0 255 -99t85 -249z" />
    <glyph glyph-name="divide" unicode="&#xf7;" 
d="M526 457q88 0 88 -86q0 -41 -38 -79t-80 -38q-44 0 -68 22t-22 64q0 41 38 79q39 38 82 38zM983 735l-22 -106h-787l23 106h786zM660 1108q42 0 66 -22t24 -64q0 -41 -39 -79t-82 -38t-66 23q-23 24 -23 64t39 78q38 38 81 38z" />
    <glyph glyph-name="oslash" unicode="&#xf8;" horiz-adv-x="1083" 
d="M844 753q0 82 -8 117l-545 -694q47 -86 160 -86q256 0 360 441q33 140 33 222zM655 1026q-264 0 -364 -445q-31 -138 -31 -222t6 -111l545 692q-47 86 -156 86zM1004 768q0 -142 -40 -290t-106 -253q-156 -246 -422 -245q-150 0 -237 81l-125 -161l-47 43l131 168
q-62 90 -62 230q0 139 41 287t107 253q152 244 420 243q147 0 233 -75l121 153l49 -37l-129 -164q66 -92 66 -233z" />
    <glyph glyph-name="ugrave" unicode="&#xf9;" horiz-adv-x="1073" 
d="M604 1540q61 0 101 -35l88 -280h-95l-180 278q25 37 86 37zM102 244q0 55 11 98l157 762h181l-160 -768q-8 -33 -8 -76q0 -154 186 -154q123 0 203 35l198 963h181l-217 -1047q-141 -78 -390 -77q-342 0 -342 264z" />
    <glyph glyph-name="uacute" unicode="&#xfa;" horiz-adv-x="1073" 
d="M931 1540q69 0 77 -37l-297 -278h-107l201 280q57 35 126 35zM102 244q0 55 11 98l157 762h181l-160 -768q-8 -33 -8 -76q0 -154 186 -154q123 0 203 35l198 963h181l-217 -1047q-141 -78 -390 -77q-342 0 -342 264z" />
    <glyph glyph-name="ucircumflex" unicode="&#xfb;" horiz-adv-x="1073" 
d="M963 1268l-58 -47l-182 163l-248 -163l-51 47l244 205q38 31 74 31t61 -31zM102 244q0 55 11 98l157 762h181l-160 -768q-8 -33 -8 -76q0 -154 186 -154q123 0 203 35l198 963h181l-217 -1047q-141 -78 -390 -77q-342 0 -342 264z" />
    <glyph glyph-name="udieresis" unicode="&#xfc;" horiz-adv-x="1073" 
d="M554 1440q38 0 60 -22t21 -57q0 -36 -34 -68q-34 -31 -73 -31q-38 0 -60 20t-22 56t35 69t73 33zM892 1440q38 0 60 -22t23 -57q0 -36 -34 -68q-34 -31 -73 -31q-38 0 -60 20t-22 56t34 69t72 33zM102 244q0 55 11 98l157 762h181l-160 -768q-8 -33 -8 -76
q0 -154 186 -154q123 0 203 35l198 963h181l-217 -1047q-141 -78 -390 -77q-342 0 -342 264z" />
    <glyph glyph-name="yacute" unicode="&#xfd;" horiz-adv-x="1021" 
d="M907 1540q68 0 78 -37l-297 -278h-106l200 280q57 35 125 35zM444 172h5q16 61 55 137l401 795h174l-825 -1544h-195l273 442l-139 1102h188l63 -795v-137z" />
    <glyph glyph-name="thorn" unicode="&#xfe;" 
d="M836 752q0 260 -248 260q-88 0 -166 -37l-178 -862q63 -23 131 -23q201 0 327 189q59 90 97 224q37 134 37 249zM1012 745q0 -137 -49 -287t-132 -253q-176 -223 -446 -223q-82 0 -164 24l-92 -446h-178l424 2048h178l-113 -537q102 49 203 49q177 0 273 -98t96 -277z
" />
    <glyph glyph-name="ydieresis" unicode="&#xff;" horiz-adv-x="1021" 
d="M536 1440q38 0 59 -22t21 -57q0 -36 -34 -68q-34 -31 -72 -31t-60 20t-22 56t35 69t73 33zM874 1440q38 0 60 -22t22 -57q0 -36 -34 -68q-34 -31 -72 -31t-60 20t-22 56t34 69t72 33zM444 172h5q16 61 55 137l401 795h174l-825 -1544h-195l273 442l-139 1102h188l63 -795
v-137z" />
    <glyph glyph-name="dotlessi" unicode="&#x131;" horiz-adv-x="485" 
d="M459 1104l-230 -1104h-180l230 1104h180z" />
    <glyph glyph-name="Lslash" unicode="&#x141;" horiz-adv-x="886" 
d="M737 127l-26 -127h-611l176 852l-141 -68l23 109l139 68l94 448h189l-78 -381l164 76l-23 -105l-164 -75l-164 -797h422z" />
    <glyph glyph-name="lslash" unicode="&#x142;" horiz-adv-x="608" 
d="M662 1104l-23 -111l-166 -75l-188 -918h-179l177 850l-160 -76l22 115l160 72l135 647h178l-120 -580z" />
    <glyph glyph-name="OE" unicode="&#x152;" horiz-adv-x="1564" 
d="M588 106q106 0 160 17l243 1175q-51 14 -137 15q-209 0 -348 -203q-86 -125 -138 -313t-53 -351q0 -340 273 -340zM565 -20q-213 0 -325 131t-113 337q0 206 64 408q65 201 176 336q199 238 497 238q84 0 166 -21h623l-27 -127h-463l-102 -491h418l-25 -125h-420
l-108 -537h463l-27 -129h-625q-74 -20 -172 -20z" />
    <glyph glyph-name="oe" unicode="&#x153;" horiz-adv-x="1728" 
d="M831 791q0 219 -178 219q-139 0 -233 -136q-66 -92 -108 -250t-42 -286q0 -236 176 -236q249 0 349 421q36 155 36 268zM1509 799q0 217 -188 217q-125 0 -226 -111t-145 -323l543 77q16 87 16 140zM1669 778q0 -80 -22 -196l-707 -101q-25 -203 49 -289t212 -86t274 68
l24 -117q-143 -78 -338 -77q-129 0 -219 62t-119 189q-141 -252 -389 -251q-170 0 -253 101t-83 264t55 333q54 170 146 276q147 170 369 170t280 -227q74 113 177 170t212 57q332 0 332 -346z" />
    <glyph glyph-name="Scaron" unicode="&#x160;" horiz-adv-x="948" 
d="M1004 1753l-246 -207q-37 -30 -76 -30t-64 30l-159 207l57 45l182 -164l252 164zM682 1298q-133 0 -212 -92t-79 -209t152 -200q63 -35 128 -74t109 -105t43 -155q0 -182 -137 -333t-379 -150q-207 0 -315 77l71 123q89 -59 231 -59t235 94t93 221t-146 211
q-60 35 -122 74t-104 103q-43 64 -43 155q0 172 132 311t347 140q175 0 275 -78l-66 -111q-80 57 -213 57z" />
    <glyph glyph-name="scaron" unicode="&#x161;" horiz-adv-x="829" 
d="M887 1462l-246 -207q-37 -31 -76 -31t-63 31l-160 207l57 45l183 -164l252 164zM696 373q0 -160 -123 -277q-123 -116 -308 -116t-283 77l69 113q72 -59 193 -59q122 -1 194 71t72 170t-120 158q-50 26 -101 52t-86 78t-35 128q0 141 111 249t273 108t255 -78l-64 -99
q-63 56 -167 56t-168 -64q-66 -64 -66 -156q0 -93 125 -151q51 -25 103 -53t89 -79q37 -52 37 -128z" />
    <glyph glyph-name="Ydieresis" unicode="&#x178;" horiz-adv-x="1050" 
d="M605 1729q37 1 59 -21t22 -58t-34 -68t-73 -32t-61 20t-20 57q0 36 34 69q35 33 73 33zM943 1729q39 1 61 -21t22 -58t-34 -68t-73 -32t-61 20t-20 57q0 36 33 69q34 33 72 33zM1188 1409l-549 -784l-129 -625h-188l129 625l-220 784h195l145 -637h4l424 637h189z" />
    <glyph glyph-name="Zcaron" unicode="&#x17d;" horiz-adv-x="894" 
d="M975 1753l-246 -207q-37 -30 -76 -30t-63 30l-160 207l57 45l183 -164l252 164zM995 1409l-770 -1282h520l-26 -127h-768l778 1282h-483l26 127h723z" />
    <glyph glyph-name="zcaron" unicode="&#x17e;" horiz-adv-x="862" 
d="M897 1462l-246 -207q-37 -31 -76 -31t-63 31l-160 207l58 45l182 -164l252 164zM885 1104l-658 -991h467l-22 -113h-711l666 993h-426l24 111h660z" />
    <glyph glyph-name="florin" unicode="&#x192;" horiz-adv-x="1161" 
d="M-26 -457q-78 0 -140 27l49 125q31 -12 74 -12q98 0 161 69q62 70 126 228l299 751h-224l25 113h244l78 194q74 182 166 286q93 105 270 103q85 1 151 -26l-49 -113q-32 14 -108 14t-132 -62q-56 -64 -108 -189l-82 -207h221l-22 -113h-248l-299 -754
q-129 -325 -298 -401q-76 -34 -154 -33z" />
    <glyph glyph-name="circumflex" unicode="&#x2c6;" horiz-adv-x="434" 
d="M643 1268l-57 -47l-183 163l-247 -163l-52 47l244 205q37 31 74 31t61 -31z" />
    <glyph glyph-name="caron" unicode="&#x2c7;" horiz-adv-x="434" 
d="M688 1462l-246 -207q-38 -31 -76 -31t-63 31l-160 207l58 45l182 -164l252 164z" />
    <glyph glyph-name="breve" unicode="&#x2d8;" horiz-adv-x="434" 
d="M375 1225q-123 0 -176 59t-54 139q0 2 7 45l63 23q4 -162 165 -162t238 162l62 -23q-18 -88 -100 -166t-205 -77z" />
    <glyph glyph-name="dotaccent" unicode="&#x2d9;" horiz-adv-x="434" 
d="M508 1428q0 -39 -36 -76t-79 -37q-43 1 -67 23t-23 62q0 40 35 77t78 37q44 0 68 -24q24 -23 24 -62z" />
    <glyph glyph-name="ring" unicode="&#x2da;" horiz-adv-x="434" 
d="M303 1370q0 -84 81 -84q40 0 76 39t36 79q0 85 -79 85q-40 0 -77 -40t-37 -79zM567 1408q0 -66 -58 -125q-59 -60 -129 -60t-110 38q-39 37 -39 103q-1 66 59 127t130 61t108 -39q39 -39 39 -105z" />
    <glyph glyph-name="ogonek" unicode="&#x2db;" horiz-adv-x="434" 
d="M119 -215q0 -59 90 -59q57 0 143 30l6 -69q-120 -47 -204 -47t-131 34t-47 94q0 62 68 141q69 79 206 152h131q-262 -143 -262 -276z" />
    <glyph glyph-name="tilde" unicode="&#x2dc;" horiz-adv-x="434" 
d="M506 1251q-49 0 -118 40t-112 40q-78 0 -133 -88l-47 80q61 115 183 115q51 0 115 -42t104 -42q84 0 133 86l51 -78q-59 -111 -176 -111z" />
    <glyph glyph-name="hungarumlaut" unicode="&#x2dd;" horiz-adv-x="434" 
d="M426 1518q46 0 58 -8t8 -25l-297 -262h-86l223 260q47 35 94 35zM698 1518q48 0 59 -8t7 -25l-297 -262h-86l223 260q46 35 94 35z" />
    <glyph glyph-name="Delta" unicode="&#x394;" horiz-adv-x="1198" 
d="M860 119l-98 950l-10 154h-4q-31 -74 -74 -154l-502 -950h688zM1057 0h-1123l768 1409h172z" />
    <glyph glyph-name="Omega" unicode="&#x3a9;" horiz-adv-x="1335" 
d="M858 1430q210 0 320 -118t110 -331t-118 -456t-277 -398h272l-26 -127h-494q231 207 369 565q92 244 92 432q0 307 -260 308q-190 0 -316 -158q-90 -113 -137 -298t-47 -357q0 -311 135 -492h-485l27 127h276q-121 205 -121 485q0 166 61 334q60 168 167 285
q182 199 452 199z" />
    <glyph glyph-name="pi" unicode="&#x3c0;" horiz-adv-x="1310" 
d="M983 202q0 -89 123 -83l-27 -119q-41 -4 -55 -4q-221 0 -221 190q0 47 16 125l142 680h-426l-205 -991h-178l204 991h-145l22 113h1076l-23 -113h-147l-142 -680q-14 -69 -14 -109z" />
    <glyph glyph-name="endash" unicode="&#x2013;" horiz-adv-x="802" 
d="M858 750l-24 -125h-816l25 125h815z" />
    <glyph glyph-name="emdash" unicode="&#x2014;" horiz-adv-x="1605" 
d="M1661 739l-23 -106h-1620l23 106h1620z" />
    <glyph glyph-name="quoteleft" unicode="&#x2018;" horiz-adv-x="540" 
d="M296 1051q-68 0 -73 51l352 506h101l-266 -506q-46 -51 -114 -51z" />
    <glyph glyph-name="quoteright" unicode="&#x2019;" horiz-adv-x="540" 
d="M584 1616q68 0 73 -51l-354 -506h-100l266 506q47 51 115 51z" />
    <glyph glyph-name="quotesinglbase" unicode="&#x201a;" horiz-adv-x="540" 
d="M295 211q68 0 72 -51l-353 -506h-100l266 506q47 51 115 51z" />
    <glyph glyph-name="quotedblleft" unicode="&#x201c;" horiz-adv-x="903" 
d="M296 1051q-68 0 -73 51l352 506h101l-266 -506q-46 -51 -114 -51zM658 1051q-68 0 -72 51l352 506h102l-266 -506q-48 -51 -116 -51z" />
    <glyph glyph-name="quotedblright" unicode="&#x201d;" horiz-adv-x="903" 
d="M584 1616q68 0 73 -51l-354 -506h-100l266 506q47 51 115 51zM948 1616q68 0 72 -51l-352 -506h-103l269 506q46 51 114 51z" />
    <glyph glyph-name="quotedblbase" unicode="&#x201e;" horiz-adv-x="903" 
d="M295 211q68 0 72 -51l-353 -506h-100l266 506q47 51 115 51zM658 211q68 0 71 -51l-352 -506h-101l267 506q47 51 115 51z" />
    <glyph glyph-name="dagger" unicode="&#x2020;" horiz-adv-x="1142" 
d="M1159 1112l-37 -176l-387 16l-268 -1392h-186l307 1392l-391 -16l36 176l383 -16l89 512h186l-127 -512z" />
    <glyph glyph-name="daggerdbl" unicode="&#x2021;" horiz-adv-x="1144" 
d="M1159 1112l-33 -156l-387 15l-71 -365l-78 -354l395 14l-33 -155l-389 14l-98 -565h-180l135 565l-395 -14l32 155l389 -14l70 352l80 367l-395 -15l32 156l388 -14l88 510h180l-123 -510z" />
    <glyph glyph-name="bullet" unicode="&#x2022;" horiz-adv-x="704" 
d="M608 755q0 -85 -77 -159t-163 -74t-134 48t-48 132t76 159t162 75t135 -48t49 -133z" />
    <glyph glyph-name="ellipsis" unicode="&#x2026;" horiz-adv-x="1552" 
d="M196 227q50 1 76 -25t27 -73q0 -47 -45 -91t-94 -44t-76 26t-27 72q0 47 45 91q44 44 94 44zM817 129q0 -47 -45 -91t-94 -44t-76 26t-27 72q-1 47 45 91t95 44q102 0 102 -98zM1335 129q0 -47 -45 -91t-94 -44t-76 26q-26 26 -26 72q0 47 44 91t93 44q104 0 104 -98z
" />
    <glyph glyph-name="perthousand" unicode="&#x2030;" horiz-adv-x="2461" 
d="M1520 709q0 154 -101 153q-165 0 -248 -430q-25 -129 -24 -209q0 -150 98 -149q117 0 191 207q31 88 57 218q27 130 27 210zM2220 709q0 154 -100 153q-165 0 -249 -431q-26 -128 -26 -208q0 -150 101 -149q115 0 188 207q31 90 58 219q28 129 28 209zM702 1196
q0 154 -100 154q-165 0 -248 -430q-25 -129 -24 -209q0 -150 98 -150q115 0 188 207q31 90 59 219q27 129 27 209zM1632 676q0 -217 -92 -434q-110 -262 -310 -262t-200 266q0 96 27 220q104 476 373 476q202 0 202 -266zM2331 676q0 -221 -90 -434q-109 -262 -308 -262
q-205 0 -204 266q0 213 94 436q109 260 309 260t199 -266zM1352 1397l-770 -1411l-95 26l773 1411zM815 1161q0 -215 -92 -432q-109 -262 -309 -262t-201 266q0 96 27 220q104 476 372 477q203 -1 203 -269z" />
    <glyph glyph-name="guilsinglleft" unicode="&#x2039;" horiz-adv-x="653" 
d="M631 1061l-344 -387l176 -373l-107 -61l-209 446l392 444z" />
    <glyph glyph-name="guilsinglright" unicode="&#x203a;" horiz-adv-x="653" 
d="M580 682l-392 -442l-92 67l344 387l-176 373l105 63z" />
    <glyph glyph-name="fraction" unicode="&#x2044;" horiz-adv-x="366" 
d="M760 1401l-973 -1440l-98 49l966 1436z" />
    <glyph glyph-name="trademark" unicode="&#x2122;" horiz-adv-x="1615" 
d="M784 1409l-16 -78h-199l-129 -633h-102l131 633h-199l15 78h499zM1561 1409l-54 -711h-100l55 621l-317 -621h-96l-62 621l-199 -621h-100l240 711h141l49 -610l297 610h146z" />
    <glyph glyph-name="partialdiff" unicode="&#x2202;" 
d="M688 770q-180 0 -303 -117q-70 -66 -112 -163t-42 -190t41 -144t119 -52q166 0 283 179q61 93 103 233t48 238q-63 16 -137 16zM997 827q0 -157 -52 -331t-138 -291q-168 -225 -432 -225q-143 0 -229 88q-85 88 -85 213q1 125 61 247t152 201q166 143 390 143
q82 0 163 -20q6 176 -83 295t-220 172l56 113q170 -57 294 -211t123 -394z" />
    <glyph glyph-name="product" unicode="&#x220f;" horiz-adv-x="1703" 
d="M1128 944q0 133 -157 133q-57 0 -109 -18l-69 -336q49 -4 69 -4q135 0 201 63q65 64 65 162zM978 1157q108 1 179 -51q72 -52 72 -168t-94 -209q-94 -92 -279 -92q-37 0 -80 6l-80 -383h-100l176 854q98 43 206 43zM1538 834q0 223 -142 368q-142 146 -356 146t-394 -109
q-181 -109 -292 -289q-110 -180 -110 -389t143 -353t371 -145q300 0 540 236t240 535zM1632 854q0 -238 -126 -437q-126 -200 -330 -319t-424 -118q-264 0 -433 167q-167 169 -167 405t124 437q125 201 329 321t425 120q264 0 433 -169t169 -407z" />
    <glyph glyph-name="summation" unicode="&#x2211;" 
d="M1120 1409l-24 -129h-586l264 -694l-604 -877h616l-28 -149h-873l703 1018l-312 831h844z" />
    <glyph glyph-name="minus" unicode="&#x2212;" 
d="M891 330l-23 -113h-790l24 113h789zM1067 1176l-29 -129l-688 -232l592 -231l-24 -119l-728 301l25 106z" />
    <glyph glyph-name="radical" unicode="&#x221a;" 
d="M1268 1608l-688 -1608h-174l-91 993h-161l24 111h297l49 -885h4l572 1389h168z" />
    <glyph glyph-name="infinity" unicode="&#x221e;" horiz-adv-x="1755" 
d="M559 911q-97 0 -179 -80t-81 -188q0 -74 47 -122t130 -48t164 52t200 173q-78 121 -131 167t-150 46zM1534 748q0 74 -47 120t-132 47q-85 0 -160 -47t-202 -176q72 -121 125 -168q54 -47 152 -47t181 81t83 190zM1376 1038q125 0 201 -76t76 -210t-109 -267t-301 -133
q-117 0 -191 58t-155 192q-133 -139 -226 -194q-93 -56 -215 -56t-199 75t-77 209t112 268t300 134q110 0 182 -56t160 -194q147 142 232 196t210 54z" />
    <glyph glyph-name="integral" unicode="&#x222b;" 
d="M92 -442q-35 0 -53 2l24 121q98 -2 171 53t96 168l282 1353q37 179 154 267t258 88q35 0 53 -2l-24 -119q-94 2 -167 -51t-98 -170l-280 -1356q-35 -174 -149 -264t-267 -90z" />
    <glyph glyph-name="approxequal" unicode="&#x2248;" 
d="M692 365q-74 1 -173 67t-169 66q-102 0 -219 -99l19 129q98 90 217 90q70 0 175 -68t167 -67q120 0 237 109l-18 -127q-86 -100 -236 -100zM444 991q70 1 174 -67t166 -68q125 1 240 107l-18 -127q-88 -102 -236 -103q-74 0 -174 69t-170 68q-102 0 -219 -98l18 127
q102 92 219 92z" />
    <glyph glyph-name="notequal" unicode="&#x2260;" 
d="M1020 920l-25 -117h-262l-192 -238h403l-22 -116h-476l-192 -236l-74 47l154 189h-197l25 116h264l195 238h-410l25 117h477l182 223l76 -47l-144 -176h193z" />
    <glyph glyph-name="lessequal" unicode="&#x2264;" 
d="M987 748l-24 -123h-789l25 123h788z" />
    <glyph glyph-name="greaterequal" unicode="&#x2265;" 
d="M1053 1032l-396 -358l244 -355l-94 -75l-244 348l-387 -348l-78 88l396 356l-246 354l98 80l242 -350l389 350z" />
    <glyph glyph-name="lozenge" unicode="&#x25ca;" horiz-adv-x="1314" 
d="M1085 709l-282 499l-492 -506l283 -499zM1251 705l-698 -713l-408 713l697 712z" />
    <glyph glyph-name="fi" unicode="&#xfb01;" horiz-adv-x="1073" 
d="M1049 1104l-230 -1104h-180l229 1104h181zM766 1610q31 0 45 -2l-25 -115q-74 2 -144 -50t-93 -165l-35 -174h193l-23 -111h-195l-204 -993h-181l205 993h-125l23 111h127l31 156q35 178 147 264q113 86 254 86zM1006 1315q-92 0 -93 85q0 40 39 77t82 37q42 0 68 -24
q26 -23 26 -63t-38 -76t-84 -36z" />
    <glyph glyph-name="fl" unicode="&#xfb02;" horiz-adv-x="1093" 
d="M1165 1608l-334 -1608h-180l334 1608h180zM766 1610q31 0 45 -2l-25 -115q-74 2 -144 -50t-93 -165l-35 -174h193l-23 -111h-195l-204 -993h-181l205 993h-125l23 111h127l31 156q35 178 147 264q113 86 254 86z" />
    </font>
</defs>
</svg>
