<?xml version="1.0" standalone="no"?>
<!DOCTYPE svg PUBLIC "-//W3C//DTD SVG 1.1//EN" "http://www.w3.org/Graphics/SVG/1.1/DTD/svg11.dtd" >
<svg xmlns="http://www.w3.org/2000/svg">
<metadata>
Created by FontPrep 20130207 at Mon Apr  8 14:43:47 2019
 By Mauricio Duran
Copyright Hans Reichel, 1996. Published by FontShop International FontFont release 17
</metadata>
<defs>
<font id="1703265a7bf400058044fde1f9dc8e08" horiz-adv-x='1024' >
  <font-face 
    font-family="Dax-Bold"
    font-weight="700"
    font-stretch="normal"
    units-per-em="2048"
    panose-1="0 0 0 0 0 0 0 0 0 0"
    ascent="1608"
    descent="-440"
    x-height="1104"
    cap-height="1409"
    bbox="-217 -475 2433 1864"
    underline-thickness="102"
    underline-position="-153"
    unicode-range="U+0020-FB02"
  />
<missing-glyph horiz-adv-x="2048" 
 />
    <glyph glyph-name=".notdef" horiz-adv-x="2048" 
 />
    <glyph glyph-name=".null" horiz-adv-x="0" 
 />
    <glyph glyph-name="nonmarkingreturn" horiz-adv-x="681" 
 />
    <glyph glyph-name="space" unicode=" " horiz-adv-x="548" 
 />
    <glyph glyph-name="exclam" unicode="!" horiz-adv-x="677" 
d="M541 166q1 -76 -53 -129t-130 -53t-129 53t-53 129t53 128t129 52t130 -52t53 -128zM549 1409l-68 -903h-243l-70 903h381z" />
    <glyph glyph-name="quotedbl" unicode="&#x22;" horiz-adv-x="905" 
d="M254 1429q88 0 137 -63l-57 -573h-162l-55 573q49 63 137 63zM651 1429q88 0 137 -63l-57 -573h-164l-55 573q51 63 139 63z" />
    <glyph glyph-name="numbersign" unicode="#" 
d="M700 852h-202l-45 -258h200zM1081 852h-204l-46 -258h179v-154h-205l-74 -440h-178l76 440h-201l-78 -440h-176l76 438h-176v156h202l46 256h-177v156h203l70 403h176l-70 -403h203l68 403h178l-70 -403h178v-154z" />
    <glyph glyph-name="dollar" unicode="$" 
d="M973 410q1 -152 -99 -268t-266 -146l25 -266h-182l22 258q-207 6 -321 75l73 222q106 -63 210 -63t156 48q52 49 52 126t-47 125t-156 95q-276 121 -276 379q0 160 97 278t263 144l-22 248h176l-21 -244q162 -10 263 -75l-64 -185q-98 57 -192 57t-143 -46
q-50 -48 -50 -124t48 -123q47 -48 177 -109t204 -158q74 -96 73 -248z" />
    <glyph glyph-name="percent" unicode="%" horiz-adv-x="1818" 
d="M537 951q0 161 -22 252t-86 91t-86 -91q-21 -91 -21 -252t22 -250t86 -89t85 89q22 89 22 250zM1390 815q-64 0 -86 -91t-22 -252t22 -250t86 -89t85 88q20 88 21 250t-20 253q-22 91 -86 91zM682 1266q59 -136 59 -324t-59 -320q-34 -75 -98 -119t-156 -44
q-244 0 -298 316q-13 77 -13 168t13 169q53 315 298 318q92 0 157 -44t97 -120zM1227 1389l-482 -1409l-155 38l481 1409zM1702 465q0 -90 -13 -168q-53 -317 -298 -317q-92 0 -157 44q-66 44 -98 120q-57 133 -58 319t59 323q71 164 254 164q93 0 157 -44
q154 -105 154 -441z" />
    <glyph glyph-name="ampersand" unicode="&#x26;" horiz-adv-x="1327" 
d="M426 414q0 -233 246 -234q78 1 121 19v528q-195 -45 -281 -115t-86 -198zM86 393q0 150 88 246t223 143v6q-225 90 -225 297q0 154 119 249q119 96 327 96t336 -82l-92 -185q-90 45 -183 45t-140 -41t-47 -115t58 -116q58 -43 150 -43q213 0 533 158l92 -189
q-98 -49 -219 -78v-721q-150 -83 -434 -83t-436 106q-150 106 -150 307z" />
    <glyph glyph-name="quotesingle" unicode="'" horiz-adv-x="509" 
d="M256 1429q90 0 137 -63l-57 -573h-162l-57 573q49 63 139 63z" />
    <glyph glyph-name="parenleft" unicode="(" horiz-adv-x="815" 
d="M444 584q0 -510 326 -967l-149 -84q-270 283 -391 533q-120 250 -119 520q0 270 119 519q120 249 391 531l149 -84q-326 -458 -326 -968z" />
    <glyph glyph-name="parenright" unicode=")" horiz-adv-x="815" 
d="M705 586q0 -270 -120 -520t-390 -533l-150 84q328 459 328 968t-328 967l150 84q270 -284 390 -532t120 -518z" />
    <glyph glyph-name="asterisk" unicode="*" horiz-adv-x="944" 
d="M414 1043q0 -49 -33 -81t-79 -32t-80 33t-34 81t34 81q34 34 80 34t79 -34t33 -82zM319 1355q1 -48 -33 -82t-80 -34t-79 34t-33 82t33 81q33 32 79 32t80 -32q33 -33 33 -81zM754 1042q0 -48 -33 -80t-79 -32t-80 33t-34 81t34 80q34 33 80 33t79 -33t33 -82zM563 1268
q-1 -39 -27 -66q-26 -26 -64 -26t-64 26t-27 66q0 40 28 66q29 26 65 26t62 -26t27 -66zM586 1545q0 -48 -34 -81q-34 -32 -80 -32t-79 32t-33 81q0 48 33 82t79 34t80 -34t34 -82zM850 1353q0 -48 -34 -83t-79 -34t-79 35t-34 82t34 82q34 33 80 33t79 -34t33 -81z" />
    <glyph glyph-name="plus" unicode="+" 
d="M993 578h-313v-324h-205v324h-313v204h313v322h205v-322h313v-204z" />
    <glyph glyph-name="comma" unicode="," horiz-adv-x="620" 
d="M378 338q122 0 136 -94l-326 -590h-186l191 590q63 94 185 94z" />
    <glyph glyph-name="hyphen" unicode="-" horiz-adv-x="729" 
d="M631 569h-533v236h533v-236z" />
    <glyph glyph-name="period" unicode="." horiz-adv-x="575" 
d="M469 166q0 -76 -53 -129t-129 -53t-128 53t-53 129q0 76 52 129t129 53q76 0 129 -53t53 -129z" />
    <glyph glyph-name="slash" unicode="/" horiz-adv-x="1191" 
d="M1176 1540l-965 -2013l-195 94l965 2013z" />
    <glyph glyph-name="zero" unicode="0" 
d="M756 709q0 382 -86 480q-37 42 -92 42q-112 0 -147 -163q-30 -140 -31 -306q-2 -263 32 -417q34 -155 146 -155t145 153q33 154 33 366zM1061 705q0 -219 -61 -392q-72 -206 -226 -287q-86 -46 -196 -46t-197 46q-282 151 -287 679q0 213 66 405t221 273q86 47 197 47
q110 0 196 -46t139 -118q148 -200 148 -561z" />
    <glyph glyph-name="one" unicode="1" 
d="M848 0h-326v1073q-115 -55 -332 -67l-38 192q184 20 304 82t160 129h232v-1409z" />
    <glyph glyph-name="two" unicode="2" 
d="M1004 0h-945l480 694q123 178 123 301q0 203 -230 203q-141 0 -252 -55l-76 203q164 84 409 84t364 -117t119 -282t-187 -400l-287 -367h482v-264z" />
    <glyph glyph-name="three" unicode="3" 
d="M1018 426q0 -199 -150 -323q-150 -123 -400 -123t-402 79l84 217q115 -59 252 -59q138 0 204 56t66 155q0 127 -98 178t-246 47v168q150 15 232 75t81 144q0 164 -197 164q-147 0 -262 -55l-78 201q160 80 384 80t348 -94q125 -94 125 -251q0 -104 -68 -179t-156 -111v-4
q281 -101 281 -365z" />
    <glyph glyph-name="four" unicode="4" 
d="M657 453v446l7 209l-13 -27q-21 -54 -90 -176l-262 -452h358zM1065 279h-107v-279h-301v279h-559v188l547 942h313v-956h107v-174z" />
    <glyph glyph-name="five" unicode="5" 
d="M1034 432q0 -199 -150 -326q-150 -126 -400 -126q-248 0 -402 79l84 217q115 -61 276 -61q109 0 179 57t69 156q0 61 -24 109q-25 47 -86 84q-115 70 -424 28l80 760h737v-264h-514l-25 -299q304 16 452 -100t148 -314z" />
    <glyph glyph-name="six" unicode="6" 
d="M762 451q0 254 -236 254q-61 0 -114 -23q-14 -61 -14 -185t44 -217q44 -94 140 -94t138 76t42 189zM1063 432q0 -201 -129 -327q-128 -125 -362 -125t-352 154t-118 392q0 174 57 325q56 151 140 248t188 171q182 129 353 153l82 -211q-336 -88 -463 -368q65 20 145 20
q173 0 307 -93q70 -48 111 -135t41 -204z" />
    <glyph glyph-name="seven" unicode="7" 
d="M109 1145v264h991l-176 -432q-266 -657 -336 -977h-389l514 1145h-604z" />
    <glyph glyph-name="eight" unicode="8" 
d="M768 357q0 79 -39 135t-158 131q-121 -70 -161 -126q-40 -55 -39 -135q0 -80 59 -133t144 -53t140 51q54 51 54 130zM764 1083q0 72 -51 120t-130 48t-128 -47t-49 -120q0 -72 36 -120t144 -116q102 63 140 113t38 122zM1061 354q0 -170 -134 -272t-347 -102t-350 98
q-136 98 -136 274q0 121 67 207t216 172q-127 78 -184 159t-58 185q0 158 125 256q125 99 318 99q194 0 318 -98t124 -255q0 -104 -57 -181t-185 -153q145 -90 214 -181t69 -208z" />
    <glyph glyph-name="nine" unicode="9" 
d="M756 922q0 118 -46 212t-142 93q-96 0 -137 -75q-42 -75 -42 -187q0 -254 236 -254q51 0 116 20q15 73 15 191zM575 1423q359 -1 452 -339q26 -94 26 -238q-1 -144 -57 -294q-56 -151 -140 -248t-188 -171q-182 -129 -353 -153l-82 210q336 88 463 369q-66 -20 -135 -20
q-195 0 -332 104q-137 105 -137 317t132 338t351 125z" />
    <glyph glyph-name="colon" unicode=":" horiz-adv-x="575" 
d="M469 166q0 -76 -53 -129t-129 -53t-128 53t-53 129q0 76 52 129t129 53q76 0 129 -53t53 -129zM469 811q0 -76 -53 -129t-129 -53t-128 53t-53 129q0 76 52 129t129 53q76 0 129 -53t53 -129z" />
    <glyph glyph-name="semicolon" unicode=";" horiz-adv-x="620" 
d="M378 340q122 0 136 -96l-326 -590h-186l191 590q63 96 185 96zM514 811q0 -76 -53 -129t-129 -53t-129 53t-53 129t53 129t129 53t129 -53t53 -129z" />
    <glyph glyph-name="less" unicode="&#x3c;" 
d="M993 240l-831 348v188l831 348v-223l-579 -219l579 -221v-221z" />
    <glyph glyph-name="equal" unicode="=" 
d="M993 362h-831v205h831v-205zM993 791h-831v204h831v-204z" />
    <glyph glyph-name="greater" unicode="&#x3e;" 
d="M993 588l-831 -348v221l579 221l-579 219v223l831 -348v-188z" />
    <glyph glyph-name="question" unicode="?" horiz-adv-x="921" 
d="M635 166q0 -76 -53 -129t-129 -53t-129 53t-54 129q0 76 54 129t129 53q76 0 129 -53t53 -129zM897 1092q0 -146 -94 -233t-209 -124l-21 -229h-241l-33 321q113 23 187 80t75 134q0 77 -49 122q-50 45 -152 45t-204 -51l-82 191q152 80 362 80t335 -96q126 -94 126 -240
z" />
    <glyph glyph-name="at" unicode="@" horiz-adv-x="1777" 
d="M897 905q-81 0 -149 -80t-98 -176t-30 -184t46 -143q44 -56 124 -56t149 79t98 175q70 226 -12 328q-46 58 -128 57zM1667 848q0 -230 -120 -461q-56 -109 -151 -181q-96 -72 -190 -71q-94 0 -131 39t-51 129q-123 -166 -299 -166q-131 0 -199 95q-68 94 -68 226t49 258
q48 126 152 221q103 95 243 95t222 -155l27 118h147l-88 -395q-56 -246 -23 -312q13 -26 48 -26q79 0 151 100t110 234t38 248q0 223 -137 354t-361 131t-409 -125q-185 -126 -287 -324t-102 -417q0 -291 181 -454t470 -163q227 0 387 78t301 223l70 -88
q-154 -161 -332 -241t-430 -80q-352 0 -568 193q-215 194 -215 536q0 256 125 478t344 354q219 133 487 133t439 -158q170 -158 170 -426z" />
    <glyph glyph-name="A" unicode="A" horiz-adv-x="1255" 
d="M774 492l-125 458q-25 89 -33 170h-4q-8 -70 -37 -170l-131 -458h330zM1247 0h-342l-86 301h-424l-90 -301h-297l459 1409h324z" />
    <glyph glyph-name="B" unicode="B" horiz-adv-x="1228" 
d="M819 401q0 129 -69 190q-70 60 -236 60h-65v-452q55 -20 126 -21q244 0 244 223zM793 1032q0 211 -224 211q-72 0 -120 -16v-416h65q154 0 216 52t63 169zM1151 389q-1 -205 -149 -307t-428 -102t-441 81v1287q158 82 429 82q272 0 410 -104t138 -271q0 -127 -76 -207
t-176 -105v-4q111 -29 202 -123t91 -227z" />
    <glyph glyph-name="C" unicode="C" horiz-adv-x="1005" 
d="M90 702q0 306 144 517t413 211q195 0 305 -82l-67 -201q-68 43 -166 43q-151 0 -219 -138t-68 -341t71 -340t214 -138q88 0 162 43l75 -213q-109 -84 -309 -83q-270 0 -413 208q-142 208 -142 514z" />
    <glyph glyph-name="D" unicode="D" horiz-adv-x="1265" 
d="M559 209q153 0 217 116t64 385t-67 386t-218 116q-57 0 -94 -14v-975q43 -14 98 -14zM541 1430q327 0 481 -196t154 -517q0 -322 -144 -530q-144 -207 -475 -207q-266 0 -424 81v1287q170 82 408 82z" />
    <glyph glyph-name="E" unicode="E" horiz-adv-x="940" 
d="M854 0h-721v1409h721v-223h-387v-359h338v-217h-338v-387h387v-223z" />
    <glyph glyph-name="F" unicode="F" horiz-adv-x="927" 
d="M852 1186h-385v-359h336v-217h-336v-610h-334v1409h719v-223z" />
    <glyph glyph-name="G" unicode="G" horiz-adv-x="1249" 
d="M90 701q0 337 174 533t475 196q229 0 373 -82l-96 -205q-86 51 -238 51q-352 0 -352 -492q0 -242 76 -368t209 -125q68 0 104 20v400h-168v198h479v-766q-141 -82 -397 -81q-315 0 -477 192t-162 529z" />
    <glyph glyph-name="H" unicode="H" horiz-adv-x="1290" 
d="M1157 0h-334v610h-356v-610h-334v1409h334v-582h356v582h334v-1409z" />
    <glyph glyph-name="I" unicode="I" horiz-adv-x="606" 
d="M469 0h-332v1409h332v-1409z" />
    <glyph glyph-name="J" unicode="J" horiz-adv-x="606" 
d="M469 94q0 -254 -151 -393t-394 -152v230q92 16 153 89q60 73 60 193v1348h332v-1315z" />
    <glyph glyph-name="K" unicode="K" horiz-adv-x="1210" 
d="M467 698v-698h-330v1409h330v-635h4l354 635h340l-399 -647l426 -762h-373l-348 698h-4z" />
    <glyph glyph-name="L" unicode="L" horiz-adv-x="888" 
d="M827 0h-690v1409h332v-1186h358v-223z" />
    <glyph glyph-name="M" unicode="M" horiz-adv-x="1636" 
d="M1556 0h-315l-70 811l-6 172h-4q-16 -83 -136 -497t-144 -486h-166l-238 811l-43 172h-4q4 -82 -4 -172q-68 -750 -72 -811h-274l149 1409h324l219 -788l37 -158h4q14 72 39 158l231 788h322z" />
    <glyph glyph-name="N" unicode="N" horiz-adv-x="1339" 
d="M1206 0h-256l-469 791l-73 147h-5q8 -76 9 -154v-784h-279v1409h293l432 -723l72 -135h4q-8 68 -8 141v717h280v-1409z" />
    <glyph glyph-name="O" unicode="O" horiz-adv-x="1282" 
d="M854 717q0 494 -213 493q-213 0 -213 -494t213 -493q213 0 213 494zM1192 705q0 -322 -136 -524q-136 -201 -415 -201t-415 202t-136 523t136 523t415 202t415 -202t136 -523z" />
    <glyph glyph-name="P" unicode="P" horiz-adv-x="1173" 
d="M788 978q0 138 -53 200t-176 63q-63 0 -100 -16v-504l45 -2q154 -7 219 57t65 202zM1104 972q0 -210 -151 -341t-449 -105l-45 4v-530h-326v1348q167 82 437 82t402 -124t132 -334z" />
    <glyph glyph-name="Q" unicode="Q" horiz-adv-x="1282" 
d="M641 225q213 0 213 493t-213 492q-213 0 -213 -492t213 -493zM1192 707q0 -451 -248 -635l221 -271l-241 -213l-183 406q-45 -10 -100 -10q-279 0 -415 200t-136 522q0 320 136 522t415 202q190 0 317 -100q126 -100 180 -258t54 -365z" />
    <glyph glyph-name="R" unicode="R" horiz-adv-x="1210" 
d="M791 977q1 135 -51 200t-181 64q-51 0 -96 -18v-516q25 -8 72 -9q127 0 191 72t65 207zM463 623v-623h-328v1348q171 82 437 82t405 -117t139 -324q0 -137 -93 -236t-232 -122v-4l374 -627h-364l-334 623h-4z" />
    <glyph glyph-name="S" unicode="S" horiz-adv-x="991" 
d="M905 422q0 -193 -133 -318q-132 -124 -358 -124t-351 83l76 232q96 -66 205 -66t160 46t51 118t-44 119t-153 94q-281 125 -280 389q0 183 123 309t327 126t326 -82l-70 -203q-98 61 -196 61q-186 0 -185 -162q1 -72 47 -118t144 -88q186 -84 248 -186t63 -230z" />
    <glyph glyph-name="T" unicode="T" horiz-adv-x="952" 
d="M887 1186h-244v-1186h-334v1186h-246v223h824v-223z" />
    <glyph glyph-name="U" unicode="U" horiz-adv-x="1245" 
d="M1112 416q0 -199 -137 -319t-352 -120t-353 120q-137 120 -137 319v993h334v-991q0 -90 47 -139t123 -49t122 48q46 50 46 142v989h307v-993z" />
    <glyph glyph-name="V" unicode="V" horiz-adv-x="1163" 
d="M1153 1409l-424 -1409h-289l-426 1409h353l196 -819l33 -172h2q14 96 33 172l203 819h319z" />
    <glyph glyph-name="W" unicode="W" horiz-adv-x="1720" 
d="M1679 1409l-315 -1409h-293l-182 741l-27 150h-4q-6 -72 -24 -150l-179 -741h-295l-317 1409h328l147 -823l21 -160h4q8 80 26 160l187 823h237l183 -823l24 -160h4q6 82 21 160l153 823h301z" />
    <glyph glyph-name="X" unicode="X" horiz-adv-x="1142" 
d="M1128 0h-370l-197 459h-4l-203 -459h-340l375 719l-338 690h355l169 -422h5l198 422h318l-351 -651z" />
    <glyph glyph-name="Y" unicode="Y" horiz-adv-x="1087" 
d="M709 0h-332v592l-373 817h348l203 -532h4l213 532h313l-376 -817v-592z" />
    <glyph glyph-name="Z" unicode="Z" horiz-adv-x="966" 
d="M895 0h-860l440 1186h-393v223h805l-424 -1186h432v-223z" />
    <glyph glyph-name="bracketleft" unicode="[" horiz-adv-x="749" 
d="M674 -440h-543v2048h543v-181h-262v-1685h262v-182z" />
    <glyph glyph-name="backslash" unicode="\" horiz-adv-x="1196" 
d="M1180 -379l-197 -96l-967 2013l197 96z" />
    <glyph glyph-name="bracketright" unicode="]" horiz-adv-x="749" 
d="M618 -440h-542v182h262v1685h-262v181h542v-2048z" />
    <glyph glyph-name="asciicircum" unicode="^" horiz-adv-x="1255" 
d="M1090 928l-127 -123l-334 373l-336 -373l-127 123l328 432q51 68 133 68t135 -68z" />
    <glyph glyph-name="underscore" unicode="_" 
d="M1176 -453h-1196v195h1196v-195z" />
    <glyph glyph-name="grave" unicode="`" horiz-adv-x="507" 
d="M428 1217h-174l-264 286q20 51 124 52t175 -44z" />
    <glyph glyph-name="a" unicode="a" horiz-adv-x="1105" 
d="M686 178v402q-160 -16 -239 -66t-78 -174q0 -184 200 -184q72 -1 117 22zM70 328q0 205 186 296q162 79 430 103v51q0 82 -50 115t-166 33t-265 -68l-70 182q199 84 416 84q434 0 434 -403v-660q-154 -82 -432 -81q-483 0 -483 348z" />
    <glyph glyph-name="b" unicode="b" horiz-adv-x="1167" 
d="M770 563q0 177 -48 275t-167 98q-68 0 -115 -25v-723q39 -16 99 -16q231 0 231 391zM1085 584q0 -291 -146 -448q-145 -156 -417 -156t-401 81v1547h319v-531q86 41 205 41q197 0 319 -146t121 -388z" />
    <glyph glyph-name="c" unicode="c" horiz-adv-x="860" 
d="M82 554q0 269 129 420q129 150 313 150t281 -80l-66 -176q-55 43 -131 43q-205 0 -205 -352q-1 -168 53 -260t143 -92t140 45l68 -193q-85 -79 -279 -79t-320 152t-126 422z" />
    <glyph glyph-name="d" unicode="d" horiz-adv-x="1167" 
d="M641 938q-244 0 -244 -378t234 -378q67 1 98 17v727q-41 12 -88 12zM82 540q0 268 134 422q134 155 351 154q88 0 162 -18v510h318v-1547q-154 -81 -415 -81t-406 146q-144 146 -144 414z" />
    <glyph glyph-name="e" unicode="e" horiz-adv-x="1128" 
d="M567 936q-100 0 -155 -87t-47 -253l385 57q0 283 -183 283zM82 553q0 264 131 418q131 153 368 153t357 -153t109 -436l-662 -95q33 -242 266 -241q172 0 287 59l72 -199q-160 -79 -404 -79t-384 154t-140 419z" />
    <glyph glyph-name="f" unicode="f" horiz-adv-x="722" 
d="M676 897h-170v-897h-320v897h-120v207h120v113q0 207 132 310t358 79v-203q-84 4 -127 -33t-43 -127v-139h170v-207z" />
    <glyph glyph-name="g" unicode="g" horiz-adv-x="1161" 
d="M629 940q-121 0 -176 -98t-55 -294t52 -284q54 -90 173 -90q63 0 106 27v721q-37 18 -100 18zM1040 -8q0 -227 -131 -342t-373 -115t-391 82l82 207q121 -66 273 -66q229 0 229 207v62q-63 -35 -192 -35q-201 0 -328 144t-127 408t144 422t412 158t402 -82v-1050z" />
    <glyph glyph-name="h" unicode="h" horiz-adv-x="1179" 
d="M1059 0h-320v768q0 156 -164 156q-76 0 -135 -31v-893h-319v1608h319v-541q115 51 238 51q195 0 288 -96t93 -248v-774z" />
    <glyph glyph-name="i" unicode="i" horiz-adv-x="573" 
d="M446 0h-319v1104h319v-1104zM287 1571q70 -1 120 -45t50 -106t-49 -105t-121 -43t-121 43t-49 105t50 106t120 45z" />
    <glyph glyph-name="j" unicode="j" horiz-adv-x="575" 
d="M449 123q1 -262 -139 -418t-363 -166v211q94 31 138 104t44 230v1020h320v-981zM289 1571q70 -1 120 -45t50 -106t-49 -105t-121 -43t-121 43t-49 105t50 106t120 45z" />
    <glyph glyph-name="k" unicode="k" horiz-adv-x="1120" 
d="M444 557v-557h-317v1608h317v-992h5l309 488h319l-346 -496l393 -608h-358l-317 557h-5z" />
    <glyph glyph-name="l" unicode="l" horiz-adv-x="573" 
d="M446 0h-319v1608h319v-1608z" />
    <glyph glyph-name="m" unicode="m" horiz-adv-x="1800" 
d="M1679 0h-319v774q0 68 -40 109t-123 41t-136 -54v-870h-320v778q0 68 -45 107t-123 39t-133 -21v-903h-319v1042q182 82 432 82t365 -110q129 111 364 110q188 0 292 -98t105 -252v-774z" />
    <glyph glyph-name="n" unicode="n" horiz-adv-x="1179" 
d="M1059 0h-320v772q0 154 -164 154q-68 0 -135 -23v-903h-319v1042q184 82 463 82q475 0 475 -350v-774z" />
    <glyph glyph-name="o" unicode="o" horiz-adv-x="1138" 
d="M739 528q0 140 -12 214t-51 129t-107 55q-69 0 -107 -54t-50 -130q-12 -75 -12 -215t36 -235q37 -95 134 -95t133 95q36 96 36 236zM1057 553q0 -256 -127 -415q-126 -158 -360 -158t-361 158t-127 415q0 256 127 414q127 157 359 157t361 -157q128 -158 128 -414z" />
    <glyph glyph-name="p" unicode="p" horiz-adv-x="1167" 
d="M770 555q0 193 -54 287t-177 94q-55 0 -99 -16v-732q35 -14 84 -14q246 0 246 381zM540 1124q255 0 400 -146t145 -414q0 -267 -134 -423t-351 -155q-100 0 -160 18v-444h-319v1482q164 82 419 82z" />
    <glyph glyph-name="q" unicode="q" horiz-adv-x="1167" 
d="M629 940q-231 0 -231 -382t218 -382q68 0 113 25v721q-37 18 -100 18zM1047 -440h-318v465q-82 -41 -199 -41q-200 0 -324 145t-124 404t138 425t429 166q252 0 398 -82v-1482z" />
    <glyph glyph-name="r" unicode="r" horiz-adv-x="735" 
d="M440 0h-319v1042q201 96 592 78l-60 -225q-119 49 -213 6v-901z" />
    <glyph glyph-name="s" unicode="s" horiz-adv-x="874" 
d="M799 330q0 -150 -115 -249q-116 -99 -312 -99t-317 79l82 203q80 -63 197 -63q61 -1 99 33t38 88t-32 90q-32 35 -109 65q-141 55 -195 132q-53 77 -53 175q0 144 102 242t278 98t306 -80l-78 -182q-70 58 -150 58t-112 -33q-33 -33 -33 -83t36 -85t106 -66
q150 -63 206 -140t56 -183z" />
    <glyph glyph-name="t" unicode="t" horiz-adv-x="745" 
d="M186 303v594h-120v207h120v235l320 82v-317h170v-207h-170v-569q0 -129 102 -129q27 0 68 12v-197q-66 -31 -158 -30q-164 0 -248 91t-84 228z" />
    <glyph glyph-name="u" unicode="u" horiz-adv-x="1165" 
d="M610 -20q-262 0 -376 92t-113 290v742h319v-764q0 -66 37 -106t117 -40t131 27v883h319v-1038q-172 -86 -434 -86z" />
    <glyph glyph-name="v" unicode="v" horiz-adv-x="1069" 
d="M1042 1104l-350 -1104h-309l-354 1104h338l157 -635q18 -86 23 -145l2 -23h4q6 80 29 168l161 635h299z" />
    <glyph glyph-name="w" unicode="w" horiz-adv-x="1646" 
d="M1606 1104l-303 -1104h-295l-158 598q-8 33 -13 71t-8 60l-2 21h-2q-4 -78 -24 -152l-162 -598h-293l-303 1104h317l134 -637l20 -160h4q2 68 27 160l168 637h262l158 -637l26 -160h4q2 82 21 162l141 635h281z" />
    <glyph glyph-name="x" unicode="x" horiz-adv-x="1062" 
d="M1049 0h-353l-174 352l-4 2l-180 -354h-324l346 569l-311 535h336l160 -320h4l170 320h297l-318 -512z" />
    <glyph glyph-name="y" unicode="y" horiz-adv-x="1069" 
d="M541 291h4q6 80 30 174l168 639h299l-495 -1544h-336l176 440l-358 1104h338l151 -639q15 -62 23 -152v-22z" />
    <glyph glyph-name="z" unicode="z" horiz-adv-x="899" 
d="M829 0h-778l375 897h-338v207h733l-356 -897h364v-207z" />
    <glyph glyph-name="braceleft" unicode="{" horiz-adv-x="829" 
d="M737 -256q-485 0 -485 365v290q0 193 -178 201v164q178 4 178 190v289q0 365 485 365v-160q-113 0 -162 -44t-49 -142v-334q0 -207 -194 -246v-4q88 -16 141 -80t53 -172v-336q0 -98 49 -142t162 -44v-160z" />
    <glyph glyph-name="bar" unicode="|" horiz-adv-x="509" 
d="M379 -440h-248v2048h248v-2048z" />
    <glyph glyph-name="braceright" unicode="}" horiz-adv-x="829" 
d="M575 109q0 -365 -483 -365v160q111 0 161 44t50 142v336q0 217 195 252q-2 4 0 4q-195 39 -195 246v334q0 98 -50 142t-161 44v160q483 0 483 -365v-289q0 -186 181 -190v-164q-84 -4 -132 -48t-49 -153v-290z" />
    <glyph glyph-name="asciitilde" unicode="~" horiz-adv-x="1255" 
d="M1104 729q-51 -145 -240 -168q-90 -10 -225 62t-211 63q-129 -12 -188 -151l-88 198q76 162 235 178q94 9 226 -63t204 -64q139 14 195 146z" />
    <glyph glyph-name="nbspace" unicode="&#xa0;" horiz-adv-x="548" 
 />
    <glyph glyph-name="exclamdown" unicode="&#xa1;" horiz-adv-x="677" 
d="M549 -440h-381l68 903h243zM541 803q1 -76 -53 -129t-130 -53t-129 53t-53 129t53 129t129 53t130 -53t53 -129z" />
    <glyph glyph-name="cent" unicode="&#xa2;" 
d="M172 709q0 203 94 327t250 156l-20 217h186l-18 -209q135 -8 210 -63l-61 -156q-55 35 -142 35t-139 -79t-53 -223q0 -144 53 -221q52 -77 140 -77t141 37l64 -172q-70 -55 -218 -64l23 -217h-193l25 225q-160 31 -251 156t-91 328z" />
    <glyph glyph-name="sterling" unicode="&#xa3;" 
d="M1053 0h-930q221 248 221 487q0 72 -22 158h-201v184h149q-33 123 -32 224q0 157 114 267t336 110q221 0 348 -80l-69 -195q-84 49 -207 49q-219 0 -219 -231q0 -68 20 -144h279v-184h-250q12 -57 12 -129t-24 -144q-24 -73 -48 -108h523v-264z" />
    <glyph glyph-name="currency" unicode="&#xa4;" 
d="M354 703q0 -93 66 -159t159 -65q93 -1 157 65t65 159q0 93 -65 159q-66 66 -158 66t-158 -66t-66 -159zM1063 322l-105 -105l-141 141q-109 -76 -239 -76t-240 76l-141 -141l-105 105l141 141q-75 109 -75 239t75 240l-141 141l105 105l141 -141q104 75 240 75t239 -75
l141 141l105 -105l-141 -141q76 -104 76 -240t-76 -239z" />
    <glyph glyph-name="yen" unicode="&#xa5;" 
d="M729 0h-303v520l-336 -16v135l330 -14l-80 168l-250 -17v135l203 -14l-242 512h326l211 -547h4l221 547h291l-242 -512l201 14v-135l-248 17l-80 -168l328 14v-135l-334 16v-520z" />
    <glyph glyph-name="brokenbar" unicode="&#xa6;" horiz-adv-x="509" 
d="M379 -440h-248v817h248v-817zM379 791h-248v817h248v-817z" />
    <glyph glyph-name="section" unicode="&#xa7;" 
d="M774 423q0 103 -98 189l-195 166q-119 -76 -119 -184t101 -193l190 -159q121 78 121 181zM1024 451q0 -193 -231 -336q123 -115 123 -254t-105 -227q-103 -88 -287 -89q-184 0 -311 82l72 189q89 -64 173 -64t126 31q41 31 41 80q0 78 -84 147l-226 189q-100 83 -141 163
t-41 189q0 205 223 342q-102 106 -102 231t97 212t272 87t295 -77l-68 -168q-80 53 -160 53t-116 -31t-36 -78t22 -83t83 -87l201 -170q98 -84 139 -158t41 -173z" />
    <glyph glyph-name="dieresis" unicode="&#xa8;" horiz-adv-x="507" 
d="M195 1356q0 -51 -42 -87q-41 -36 -99 -36t-99 36t-41 87t41 88t98 37t99 -37t43 -88zM594 1356q0 -51 -42 -87t-100 -36t-100 36q-41 36 -41 87t41 88q42 37 100 37t100 -37t42 -88z" />
    <glyph glyph-name="copyright" unicode="&#xa9;" horiz-adv-x="1642" 
d="M399 708q0 177 126 303t308 126t318 -152l-102 -86q-97 105 -219 105t-208 -88t-85 -208q0 -120 86 -207q87 -87 209 -87t217 104l106 -86q-139 -152 -321 -152t-309 126q-126 125 -126 302zM1421 704q0 250 -175 426t-425 176t-425 -176q-175 -178 -175 -426t175 -425
t426 -177t425 176t174 426zM1548 705q0 -301 -213 -515t-514 -213q-301 0 -514 213q-213 212 -213 514t213 514t514 212t514 -212t213 -513z" />
    <glyph glyph-name="ordfeminine" unicode="&#xaa;" horiz-adv-x="776" 
d="M403 813q49 0 74 12v244q-102 -12 -153 -43t-52 -104q0 -109 131 -109zM397 692q-324 0 -323 223q0 137 124 194q98 46 279 62v29q0 90 -121 90q-94 0 -188 -43l-47 123q131 53 274 53q287 0 287 -258v-420q-106 -53 -285 -53z" />
    <glyph glyph-name="guillemotleft" unicode="&#xab;" horiz-adv-x="1120" 
d="M559 301l-172 -100l-305 483l305 485l172 -102l-240 -383zM1006 301l-175 -100l-305 483l305 485l175 -102l-242 -383z" />
    <glyph glyph-name="logicalnot" unicode="&#xac;" 
d="M993 272h-213v308h-618v204h831v-512z" />
    <glyph glyph-name="registered" unicode="&#xae;" horiz-adv-x="1642" 
d="M950 903q0 133 -170 133q-39 0 -69 -10v-276h51q188 -1 188 153zM711 657v-358h-136v803q89 47 223 47t213 -70t79 -170t-58 -160t-158 -79l263 -371h-168l-240 358h-18zM1421 704q0 248 -175 426t-425 178t-425 -178t-175 -426t175 -425t426 -177t425 176t174 426z
M1548 705q0 -301 -213 -515t-514 -213q-301 0 -514 213q-213 212 -213 514t213 514t514 212t514 -212t213 -513z" />
    <glyph glyph-name="macron" unicode="&#xaf;" horiz-adv-x="507" 
d="M588 1278h-668v166h668v-166z" />
    <glyph glyph-name="degree" unicode="&#xb0;" horiz-adv-x="849" 
d="M598 1112q0 72 -50 122t-122 50t-123 -50t-51 -122t51 -123t123 -51t122 51t50 123zM748 1112q0 -133 -94 -228q-94 -96 -228 -96q-133 0 -228 96t-96 228q0 133 96 227q96 95 228 95q134 0 228 -94t94 -228z" />
    <glyph glyph-name="plusminus" unicode="&#xb1;" 
d="M993 137h-831v189h831v-189zM993 741h-313v-307h-205v307h-313v187h313v305h205v-305h313v-187z" />
    <glyph glyph-name="twosuperior" unicode="&#xb2;" horiz-adv-x="786" 
d="M684 535h-614l303 436q45 67 59 99t14 77t-34 77q-35 32 -106 32t-144 -31l-53 143q101 53 257 53q156 -1 231 -73t75 -178t-117 -250l-160 -203h289v-182z" />
    <glyph glyph-name="threesuperior" unicode="&#xb3;" horiz-adv-x="786" 
d="M684 807q0 -127 -94 -205t-250 -78t-258 54l57 153q74 -39 172 -39q139 0 140 113q0 131 -207 127v123q188 18 188 123q0 88 -121 88q-80 0 -147 -33l-55 137q106 53 244 53t217 -58t79 -165t-121 -172q156 -63 156 -221z" />
    <glyph glyph-name="acute" unicode="&#xb4;" horiz-adv-x="507" 
d="M518 1503l-264 -286h-174l139 294q71 45 175 44t124 -52z" />
    <glyph glyph-name="mu" unicode="&#xb5;" horiz-adv-x="1179" 
d="M686 -18q-133 0 -246 53v-475h-319v1544h319v-893q70 -35 158 -35t141 29v899h320v-1036q-160 -86 -373 -86z" />
    <glyph glyph-name="paragraph" unicode="&#xb6;" 
d="M1075 1268h-69v-1708h-195v1708h-213v-1708h-197v1048q-162 27 -258 130t-96 259q0 209 141 311t365 101h522v-141z" />
    <glyph glyph-name="periodcentered" unicode="&#xb7;" horiz-adv-x="577" 
d="M471 705q0 -75 -53 -129t-129 -54t-129 53q-54 53 -54 129t54 130q54 53 129 53q76 0 129 -53t53 -129z" />
    <glyph glyph-name="cedilla" unicode="&#xb8;" horiz-adv-x="507" 
d="M541 -254q0 -104 -154 -147t-420 -19l56 101q137 -14 225 5t88 57t-54 49t-190 3l53 88q215 18 306 -17q90 -36 90 -120z" />
    <glyph glyph-name="onesuperior" unicode="&#xb9;" horiz-adv-x="786" 
d="M573 535h-221v645q-86 -25 -198 -31l-27 129q223 27 289 131h157v-874z" />
    <glyph glyph-name="ordmasculine" unicode="&#xba;" horiz-adv-x="776" 
d="M389 840q63 0 87 58t24 168q0 108 -24 167t-88 59t-88 -59t-24 -168t25 -167t88 -58zM715 1061q0 -162 -85 -264q-85 -103 -241 -103t-242 102t-86 265q0 162 86 263t241 101t241 -101t86 -263z" />
    <glyph glyph-name="guillemotright" unicode="&#xbb;" horiz-adv-x="1120" 
d="M594 684l-305 -483l-174 100l241 383l-241 383l174 102zM1038 684l-303 -483l-174 100l240 383l-240 383l174 102z" />
    <glyph glyph-name="onequarter" unicode="&#xbc;" horiz-adv-x="1740" 
d="M1346 293v244l2 131l-9 -19q-10 -18 -27 -51t-32 -59l-143 -246h209zM518 535h-219v645q-90 -25 -203 -31l-26 129q112 14 188 51t102 80h158v-874zM1264 1395l-637 -1450l-170 71l637 1448zM1622 168h-66v-168h-210v168h-338v131l338 575h210v-581h66v-125z" />
    <glyph glyph-name="onehalf" unicode="&#xbd;" horiz-adv-x="1740" 
d="M518 535h-219v645q-90 -25 -203 -31l-26 129q112 14 188 51t102 80h158v-874zM1231 1395l-637 -1450l-170 71l637 1448zM1622 0h-614l305 430q72 102 71 176q0 115 -139 115q-57 0 -127 -31l-55 144q105 53 251 53t221 -75q75 -74 75 -182t-115 -249l-162 -199h289v-182z
" />
    <glyph glyph-name="threequarters" unicode="&#xbe;" horiz-adv-x="1740" 
d="M1356 293v244l4 131h-4q-29 -66 -66 -129l-143 -246h209zM684 807q0 -127 -94 -205t-251 -78t-259 54l59 153q72 -39 172 -39q139 0 140 113q0 131 -209 127v123q190 18 190 123q0 88 -121 88q-80 0 -147 -33l-55 137q102 53 242 53t219 -58t79 -165t-121 -172
q156 -63 156 -221zM1325 1395l-637 -1450l-170 71l637 1448zM1632 168h-65v-168h-211v168h-338v131l338 575h211v-581h65v-125z" />
    <glyph glyph-name="questiondown" unicode="&#xbf;" horiz-adv-x="921" 
d="M536 -457q-210 -1 -336 95t-126 242t94 232q94 87 209 124l20 229h242l33 -322q-113 -23 -188 -80q-74 -57 -74 -134t49 -122t151 -45t205 52l82 -191q-151 -80 -361 -80zM700 805q0 -76 -53 -129t-129 -53t-129 53t-53 129t53 129t129 53t129 -53t53 -129z" />
    <glyph glyph-name="Agrave" unicode="&#xc0;" horiz-adv-x="1255" 
d="M774 492l-125 458q-25 90 -33 168h-4q-8 -68 -37 -168l-131 -458h330zM1247 0h-342l-86 301h-424l-90 -301h-297l459 1409h324zM727 1516h-174l-264 284q21 51 125 52t174 -44z" />
    <glyph glyph-name="Aacute" unicode="&#xc1;" horiz-adv-x="1255" 
d="M774 492l-125 458q-25 90 -33 168h-4q-8 -68 -37 -168l-131 -458h330zM1247 0h-342l-86 301h-424l-90 -301h-297l459 1409h324zM950 1800l-262 -284h-176l141 292q69 45 173 44t124 -52z" />
    <glyph glyph-name="Acircumflex" unicode="&#xc2;" horiz-adv-x="1255" 
d="M774 492l-125 458q-25 90 -33 168h-4q-8 -68 -37 -168l-131 -458h330zM1247 0h-342l-86 301h-424l-90 -301h-297l459 1409h324zM628 1831q52 0 91 -39l213 -217l-86 -78l-219 156l-219 -156l-86 78l215 217q39 39 91 39z" />
    <glyph glyph-name="Atilde" unicode="&#xc3;" horiz-adv-x="1255" 
d="M774 492l-125 458q-25 90 -33 168h-4q-8 -68 -37 -168l-131 -458h330zM1247 0h-342l-86 301h-424l-90 -301h-297l459 1409h324zM948 1640q-35 -96 -162 -110q-63 -6 -155 39t-142 41q-88 -8 -127 -103l-65 142q51 109 164 118q63 6 153 -40t138 -41q94 10 129 98z" />
    <glyph glyph-name="Adieresis" unicode="&#xc4;" horiz-adv-x="1255" 
d="M774 492l-125 458q-25 90 -33 168h-4q-8 -68 -37 -168l-131 -458h330zM1247 0h-342l-86 301h-424l-90 -301h-297l459 1409h324zM569 1647q0 -51 -42 -87t-99 -36t-98 36t-41 87t41 88t98 37t99 -37t42 -88zM969 1647q0 -51 -42 -87q-41 -36 -99 -36t-99 36t-41 87t41 88
t98 37t99 -37t43 -88z" />
    <glyph glyph-name="Aring" unicode="&#xc5;" horiz-adv-x="1255" 
d="M774 492l-125 458q-25 90 -33 168h-4q-8 -68 -37 -168l-131 -458h330zM713 1683q0 35 -26 60q-27 25 -61 25t-59 -26q-25 -24 -25 -59t26 -59q24 -24 59 -25q35 1 61 25t25 59zM1247 0h-342l-86 301h-424l-90 -301h-297l459 1409h324zM809 1683q0 -76 -53 -128t-128 -52
t-128 52t-54 128q0 76 54 128q54 53 128 53q75 0 128 -52t53 -129z" />
    <glyph glyph-name="AE" unicode="&#xc6;" horiz-adv-x="1552" 
d="M799 496l-88 479l-15 139h-4q-14 -68 -41 -139l-180 -479h328zM1499 0h-618l-60 301h-426l-116 -301h-299l589 1409h787v-223h-426l86 -359h340v-217h-293l92 -387h344v-223z" />
    <glyph glyph-name="Ccedilla" unicode="&#xc7;" horiz-adv-x="1005" 
d="M846 -254q0 -104 -155 -147t-419 -19l56 101q135 -14 224 5t89 57t-54 49t-192 3l54 88q397 35 397 -137zM90 702q0 306 144 517t413 211q195 0 305 -82l-67 -201q-68 43 -166 43q-151 0 -219 -138t-68 -341t71 -340t214 -138q88 0 162 43l75 -213q-109 -84 -309 -83
q-270 0 -413 208q-142 208 -142 514z" />
    <glyph glyph-name="Egrave" unicode="&#xc8;" horiz-adv-x="937" 
d="M854 0h-721v1409h721v-223h-387v-359h338v-217h-338v-387h387v-223zM631 1516h-174l-264 284q20 51 124 52t175 -44z" />
    <glyph glyph-name="Eacute" unicode="&#xc9;" horiz-adv-x="937" 
d="M854 0h-721v1409h721v-223h-387v-359h338v-217h-338v-387h387v-223zM793 1800l-265 -284h-174l140 292q70 45 174 44t125 -52z" />
    <glyph glyph-name="Ecircumflex" unicode="&#xca;" horiz-adv-x="937" 
d="M854 0h-721v1409h721v-223h-387v-359h338v-217h-338v-387h387v-223zM478 1831q52 0 91 -39l215 -217l-88 -78l-217 156l-219 -156l-88 78l215 217q39 39 91 39z" />
    <glyph glyph-name="Edieresis" unicode="&#xcb;" horiz-adv-x="937" 
d="M854 0h-719v1409h719v-223h-387v-359h338v-217h-338v-387h387v-223zM430 1647q0 -51 -42 -87t-99 -36t-99 36q-41 36 -40 87q0 51 40 88t98 37t100 -37t42 -88zM829 1647q0 -51 -42 -87t-100 -36t-99 36t-41 87t41 88t99 37t100 -37t42 -88z" />
    <glyph glyph-name="Igrave" unicode="&#xcc;" horiz-adv-x="606" 
d="M469 0h-334v1409h334v-1409zM449 1516h-175l-264 284q20 51 124 52t175 -44z" />
    <glyph glyph-name="Iacute" unicode="&#xcd;" horiz-adv-x="606" 
d="M469 0h-332v1409h332v-1409zM596 1800l-264 -284h-174l139 292q71 45 175 44t124 -52z" />
    <glyph glyph-name="Icircumflex" unicode="&#xce;" horiz-adv-x="606" 
d="M469 0h-332v1409h332v-1409zM303 1829q53 0 90 -37l215 -217l-86 -78l-219 156l-219 -156l-86 78l215 217q37 37 90 37z" />
    <glyph glyph-name="Idieresis" unicode="&#xcf;" horiz-adv-x="606" 
d="M467 0h-332v1409h332v-1409zM244 1647q0 -51 -42 -87t-100 -36t-98 36q-41 36 -41 87t41 88t98 37q58 0 100 -37t42 -88zM643 1647q0 -51 -42 -87t-99 -36t-99 36q-41 36 -41 87t41 88t99 37t99 -37q42 -37 42 -88z" />
    <glyph glyph-name="Eth" unicode="&#xd0;" horiz-adv-x="1312" 
d="M596 205q156 0 226 119t69 386q0 267 -72 387t-229 120q-51 0 -96 -17v-352h163v-193h-163v-436q43 -14 102 -14zM596 -20q-274 0 -426 81v594h-102v193h102v500q178 82 412 82q328 0 484 -196t157 -516q0 -321 -142 -523q-71 -103 -195 -159t-290 -56z" />
    <glyph glyph-name="Ntilde" unicode="&#xd1;" horiz-adv-x="1339" 
d="M1206 0h-256l-469 791l-73 147h-5q8 -76 9 -154v-784h-279v1409h293l432 -723l72 -135h4q-8 68 -8 141v717h280v-1409zM989 1640q-37 -96 -162 -110q-63 -6 -155 39t-142 41q-88 -8 -127 -103l-65 142q47 109 164 118q63 6 152 -40q197 -102 268 57z" />
    <glyph glyph-name="Ograve" unicode="&#xd2;" horiz-adv-x="1282" 
d="M854 717q0 494 -213 493q-213 0 -213 -494t213 -493q213 0 213 494zM1192 705q0 -322 -136 -524q-136 -201 -415 -201t-415 202t-136 523t136 523t415 202t415 -202t136 -523zM782 1516h-176l-262 284q20 51 124 52t173 -44z" />
    <glyph glyph-name="Oacute" unicode="&#xd3;" horiz-adv-x="1282" 
d="M854 717q0 494 -213 493q-213 0 -213 -494t213 -493q213 0 213 494zM1192 705q0 -322 -136 -524q-136 -201 -415 -201t-415 202t-136 523t136 523t415 202t415 -202t136 -523zM934 1800l-264 -284h-174l139 292q70 45 173 44t126 -52z" />
    <glyph glyph-name="Ocircumflex" unicode="&#xd4;" horiz-adv-x="1282" 
d="M854 717q0 494 -213 493q-213 0 -213 -494t213 -493q213 0 213 494zM1192 705q0 -322 -136 -524q-136 -201 -415 -201t-415 202t-136 523t136 523t415 202t415 -202t136 -523zM642 1831q52 0 91 -39l215 -217l-88 -78l-217 156l-219 -156l-88 78l215 217q39 39 91 39z
" />
    <glyph glyph-name="Otilde" unicode="&#xd5;" horiz-adv-x="1282" 
d="M854 717q0 494 -213 493q-213 0 -213 -494t213 -493q213 0 213 494zM1192 705q0 -322 -136 -524q-136 -201 -415 -201t-415 202t-136 523t136 523t415 202t415 -202t136 -523zM967 1640q-35 -96 -162 -110q-63 -6 -155 39t-142 41q-88 -8 -127 -103l-66 142
q47 109 164 118q63 6 153 -40t138 -41q94 10 129 98z" />
    <glyph glyph-name="Odieresis" unicode="&#xd6;" horiz-adv-x="1282" 
d="M854 717q0 494 -213 493q-213 0 -213 -494t213 -493q213 0 213 494zM1192 705q0 -322 -136 -524q-136 -201 -415 -201t-415 202t-136 523t136 523t415 202t415 -202t136 -523zM584 1647q0 -51 -42 -87t-100 -36t-100 36q-41 36 -41 87t41 88t99 37q59 0 101 -37t42 -88z
M981 1647q0 -51 -41 -87t-99 -36t-100 36q-41 36 -41 87t41 88t99 37t100 -37q41 -37 41 -88z" />
    <glyph glyph-name="multiply" unicode="&#xd7;" 
d="M1004 371l-140 -138l-286 306l-287 -303l-137 135l286 307l-288 307l139 137l287 -305l286 305l137 -137l-288 -307z" />
    <glyph glyph-name="Oslash" unicode="&#xd8;" horiz-adv-x="1286" 
d="M879 717q0 133 -31 225l-383 -602q57 -139 180 -139q234 0 234 516zM645 1233q-238 0 -237 -516q0 -133 30 -223l383 602q-59 137 -176 137zM645 -20q-205 0 -334 116l-114 -178l-91 57l127 199q-141 195 -141 524q0 328 137 530t416 202q188 0 320 -109l108 172l90 -57
l-121 -189q152 -192 152 -522t-127 -532q-63 -101 -171 -157t-251 -56z" />
    <glyph glyph-name="Ugrave" unicode="&#xd9;" horiz-adv-x="1245" 
d="M1112 416q0 -199 -137 -319t-352 -120t-353 120q-137 120 -137 319v993h334v-991q0 -90 47 -139t123 -49t122 48q46 50 46 142v989h307v-993zM788 1516h-174l-264 284q20 51 124 52t175 -44z" />
    <glyph glyph-name="Uacute" unicode="&#xda;" horiz-adv-x="1245" 
d="M1112 416q0 -199 -137 -319t-352 -120t-353 120q-137 120 -137 319v993h334v-991q0 -90 47 -139t123 -49t122 48q46 50 46 142v989h307v-993zM926 1800l-264 -284h-175l140 292q71 45 175 44t124 -52z" />
    <glyph glyph-name="Ucircumflex" unicode="&#xdb;" horiz-adv-x="1245" 
d="M1112 416q0 -199 -137 -319t-352 -120t-353 120q-137 120 -137 319v993h334v-991q0 -90 47 -139t123 -49t122 48q46 50 46 142v989h307v-993zM634 1831q52 0 91 -39l215 -217l-88 -78l-217 156l-219 -156l-88 78l215 217q39 39 91 39z" />
    <glyph glyph-name="Udieresis" unicode="&#xdc;" horiz-adv-x="1245" 
d="M1112 416q0 -199 -137 -319t-352 -120t-353 120q-137 120 -137 319v993h334v-991q0 -90 47 -139t123 -49t122 48q46 50 46 142v989h307v-993zM578 1647q0 -51 -42 -87t-100 -36t-98 36q-41 36 -41 87t41 88t98 37q58 0 100 -37t42 -88zM977 1647q0 -51 -42 -87t-99 -36
t-99 36q-41 36 -41 87t41 88t99 37t99 -37q42 -37 42 -88z" />
    <glyph glyph-name="Yacute" unicode="&#xdd;" horiz-adv-x="1087" 
d="M709 0h-332v592l-373 817h354l201 -532h4l213 532h309l-376 -817v-592zM872 1800l-262 -284h-176l141 292q69 45 173 44t124 -52z" />
    <glyph glyph-name="Thorn" unicode="&#xde;" horiz-adv-x="1177" 
d="M784 739q0 129 -60 198t-173 69q-45 0 -92 -11v-501l37 -2q288 -17 288 247zM573 1194q271 0 399 -123t128 -331t-146 -332t-448 -113l-47 2v-297h-326v1409h326v-229q61 14 114 14z" />
    <glyph glyph-name="germandbls" unicode="&#xdf;" horiz-adv-x="1232" 
d="M782 -16q-158 0 -235 61l51 207q50 -35 112 -35t99 35t37 87t-25 88t-86 79q-145 98 -145 267t172 241q12 41 12 108q0 291 -162 291q-170 0 -170 -352v-1061h-317v1036q0 260 124 425t352 165t355 -142t127 -351q0 -106 -24 -185q-172 -31 -172 -147q1 -57 25 -92
t98 -89q152 -111 151 -279q-1 -167 -111 -262t-268 -95z" />
    <glyph glyph-name="agrave" unicode="&#xe0;" horiz-adv-x="1105" 
d="M686 178v402q-160 -16 -239 -66t-78 -174q0 -184 200 -184q72 -1 117 22zM70 328q0 205 186 296q162 79 430 103v51q0 82 -50 115t-166 33t-265 -68l-70 182q199 84 416 84q434 0 434 -403v-660q-154 -82 -432 -81q-483 0 -483 348zM713 1217h-176l-263 286q20 51 124 52
t173 -44z" />
    <glyph glyph-name="aacute" unicode="&#xe1;" horiz-adv-x="1105" 
d="M686 178v402q-160 -16 -239 -66t-78 -174q0 -184 200 -184q72 -1 117 22zM70 328q0 205 186 296q162 79 430 103v51q0 82 -50 115t-166 33t-265 -68l-70 182q199 84 416 84q434 0 434 -403v-660q-154 -82 -432 -81q-483 0 -483 348zM897 1503l-264 -286h-174l139 294
q70 45 173 44t126 -52z" />
    <glyph glyph-name="acircumflex" unicode="&#xe2;" horiz-adv-x="1105" 
d="M686 178v402q-160 -16 -239 -66t-78 -174q0 -184 200 -184q72 -1 117 22zM70 328q0 205 186 296q162 79 430 103v51q0 82 -50 115t-166 33t-265 -68l-70 182q199 84 416 84q434 0 434 -403v-660q-154 -82 -432 -81q-483 0 -483 348zM564 1532q54 0 91 -37l215 -217
l-88 -80l-217 156l-219 -156l-88 80l215 217q37 37 91 37z" />
    <glyph glyph-name="atilde" unicode="&#xe3;" horiz-adv-x="1105" 
d="M686 178v402q-160 -16 -239 -66t-78 -174q0 -184 200 -184q72 -1 117 22zM70 328q0 205 186 296q162 79 430 103v51q0 82 -50 115t-166 33t-265 -68l-70 182q199 84 416 84q434 0 434 -403v-660q-154 -82 -432 -81q-483 0 -483 348zM881 1343q-35 -96 -162 -110
q-63 -6 -155 39t-142 41q-86 -8 -127 -103l-66 142q53 109 164 118q63 6 153 -40t138 -41q94 10 129 98z" />
    <glyph glyph-name="adieresis" unicode="&#xe4;" horiz-adv-x="1105" 
d="M686 178v402q-160 -16 -239 -66t-78 -174q0 -184 200 -184q72 -1 117 22zM70 328q0 205 186 296q162 79 430 103v51q0 82 -50 115t-166 33t-265 -68l-70 182q199 84 416 84q434 0 434 -403v-660q-154 -82 -432 -81q-483 0 -483 348zM510 1356q0 -51 -41 -87t-99 -36
t-100 36q-41 36 -41 87t41 88q42 37 100 37t99 -37t41 -88zM909 1356q0 -51 -42 -87t-99 -36t-98 36t-41 87t41 88t98 37t99 -37t42 -88z" />
    <glyph glyph-name="aring" unicode="&#xe5;" horiz-adv-x="1105" 
d="M686 178v402q-160 -16 -239 -66t-78 -174q0 -184 200 -184q72 -1 117 22zM651 1386q0 35 -24 60q-25 24 -60 24t-59 -24t-25 -60q0 -36 25 -60q26 -24 60 -24t59 25q24 24 24 59zM70 328q0 205 186 296q162 79 430 103v51q0 82 -50 115t-166 33t-265 -68l-70 182
q199 84 416 84q434 0 434 -403v-660q-154 -82 -432 -81q-483 0 -483 348zM748 1386q0 -76 -52 -128t-129 -52q-76 0 -128 52t-52 128t52 128t128 52q77 0 129 -52t52 -128z" />
    <glyph glyph-name="ae" unicode="&#xe6;" horiz-adv-x="1697" 
d="M674 311v267q-160 -16 -239 -68t-79 -174q0 -178 164 -178q70 0 112 42t42 111zM1135 936q-91 0 -143 -85t-50 -251l377 55q-2 281 -184 281zM676 778q0 150 -195 150q-137 0 -280 -68l-68 180q179 84 403 84t302 -151q53 71 139 111t176 40q237 0 355 -154t108 -438
l-653 -92q25 -244 260 -243q170 0 280 55l74 -193q-156 -79 -385 -79t-352 163q-90 -164 -336 -163q-209 0 -322 89t-112 257q0 202 180 292q168 86 426 109v51z" />
    <glyph glyph-name="ccedilla" unicode="&#xe7;" horiz-adv-x="860" 
d="M729 -254q0 -104 -154 -147t-419 -19l57 101q135 -14 224 5t89 57t-54 49t-191 3l53 88q215 19 305 -17t90 -120zM82 554q0 269 129 420q129 150 313 150t281 -80l-66 -176q-55 43 -131 43q-205 0 -205 -352q-1 -168 53 -260t143 -92t140 45l68 -193q-85 -79 -279 -79
t-320 152t-126 422z" />
    <glyph glyph-name="egrave" unicode="&#xe8;" horiz-adv-x="1128" 
d="M567 936q-100 0 -155 -87t-47 -253l385 57q0 283 -183 283zM82 553q0 264 131 418q131 153 368 153t357 -153t109 -436l-662 -95q33 -242 266 -241q172 0 287 59l72 -199q-160 -79 -404 -79t-384 154t-140 419zM707 1217h-177l-262 286q20 51 124 52t173 -44z" />
    <glyph glyph-name="eacute" unicode="&#xe9;" horiz-adv-x="1128" 
d="M567 936q-100 0 -155 -87t-47 -253l385 57q0 283 -183 283zM82 553q0 264 131 418q131 153 368 153t357 -153t109 -436l-662 -95q33 -242 266 -241q172 0 287 59l72 -199q-160 -79 -404 -79t-384 154t-140 419zM903 1503l-264 -286h-174l139 294q70 45 173 44t126 -52z
" />
    <glyph glyph-name="ecircumflex" unicode="&#xea;" horiz-adv-x="1128" 
d="M567 936q-100 0 -155 -87t-47 -253l385 57q0 283 -183 283zM82 553q0 264 131 418q131 153 368 153t357 -153t109 -436l-662 -95q33 -242 266 -241q172 0 287 59l72 -199q-160 -79 -404 -79t-384 154t-140 419zM574 1532q54 0 92 -37l215 -217l-86 -80l-220 156
l-219 -156l-88 80l215 217q37 37 91 37z" />
    <glyph glyph-name="edieresis" unicode="&#xeb;" horiz-adv-x="1128" 
d="M567 936q-100 0 -155 -87t-47 -253l385 57q0 283 -183 283zM82 553q0 264 131 418q131 153 368 153t357 -153t109 -436l-662 -95q33 -242 266 -241q172 0 287 59l72 -199q-160 -79 -404 -79t-384 154t-140 419zM520 1356q0 -51 -42 -87t-99 -36t-98 36t-41 87t41 88
t98 37t99 -37t42 -88zM918 1356q0 -51 -42 -87t-100 -36t-98 36q-41 36 -41 87t41 88t98 37q58 0 100 -37t42 -88z" />
    <glyph glyph-name="igrave" unicode="&#xec;" horiz-adv-x="573" 
d="M446 0h-319v1104h319v-1104zM432 1217h-174l-264 286q20 51 124 52t175 -44z" />
    <glyph glyph-name="iacute" unicode="&#xed;" horiz-adv-x="573" 
d="M446 0h-319v1104h319v-1104zM578 1503l-265 -286h-174l140 294q71 45 175 44t124 -52z" />
    <glyph glyph-name="icircumflex" unicode="&#xee;" horiz-adv-x="573" 
d="M446 0h-319v1104h319v-1104zM286 1532q54 0 91 -37l215 -217l-86 -80l-219 156l-219 -156l-86 80l213 217q37 37 91 37z" />
    <glyph glyph-name="idieresis" unicode="&#xef;" horiz-adv-x="573" 
d="M446 0h-319v1104h319v-1104zM227 1356q0 -51 -42 -87t-99 -36t-98 36t-41 87t41 88t98 37t99 -37t42 -88zM625 1356q0 -51 -41 -87q-42 -36 -100 -36t-99 36t-41 87t41 88t99 37t100 -37t41 -88z" />
    <glyph glyph-name="eth" unicode="&#xf0;" horiz-adv-x="1150" 
d="M743 580q0 194 -55 338q-49 14 -90 14q-106 0 -152 -90t-47 -276q0 -186 40 -276q39 -91 135 -91t133 93q36 94 36 288zM1061 559q0 -264 -126 -423q-125 -159 -357 -159t-364 157t-132 407q0 251 122 413t335 162q57 0 100 -12q-53 129 -107 213l-186 -60
q-39 74 -82 119l178 58q-45 57 -100 110l270 86q66 -61 99 -106l166 53q51 -57 86 -119l-166 -53q264 -414 264 -846z" />
    <glyph glyph-name="ntilde" unicode="&#xf1;" horiz-adv-x="1179" 
d="M1059 0h-320v776q0 150 -164 150q-68 0 -135 -23v-903h-319v1042q184 82 465 82q473 0 473 -346v-778zM911 1343q-35 -96 -161 -110q-64 -6 -156 39t-141 41q-88 -8 -127 -103l-66 142q49 109 164 118q62 6 152 -40t139 -41q94 10 129 98z" />
    <glyph glyph-name="ograve" unicode="&#xf2;" horiz-adv-x="1138" 
d="M739 528q0 140 -12 214t-51 129t-107 55q-69 0 -107 -54t-50 -130q-12 -75 -12 -215t36 -235q37 -95 134 -95t133 95q36 96 36 236zM1057 553q0 -256 -127 -415q-126 -158 -360 -158t-361 158t-127 415q0 256 127 414q127 157 359 157t361 -157q128 -158 128 -414z
M696 1217h-174l-264 286q20 51 124 52t175 -44z" />
    <glyph glyph-name="oacute" unicode="&#xf3;" horiz-adv-x="1138" 
d="M739 528q0 140 -12 214t-51 129t-107 55q-69 0 -107 -54t-50 -130q-12 -75 -12 -215t36 -235q37 -95 134 -95t133 95q36 96 36 236zM1057 553q0 -256 -127 -415q-126 -158 -360 -158t-361 158t-127 415q0 256 127 414q127 157 359 157t361 -157q128 -158 128 -414z
M891 1503l-264 -286h-174l139 294q70 45 173 44t126 -52z" />
    <glyph glyph-name="ocircumflex" unicode="&#xf4;" horiz-adv-x="1138" 
d="M739 528q0 140 -12 214t-51 129t-107 55q-69 0 -107 -54t-50 -130q-12 -75 -12 -215t36 -235q37 -95 134 -95t133 95q36 96 36 236zM1057 553q0 -256 -127 -415q-126 -158 -360 -158t-361 158t-127 415q0 256 127 414q127 157 359 157t361 -157q128 -158 128 -414z
M568 1532q54 0 91 -37l215 -217l-86 -80l-219 156l-219 -156l-88 80l215 217q37 37 91 37z" />
    <glyph glyph-name="otilde" unicode="&#xf5;" horiz-adv-x="1138" 
d="M739 528q0 140 -12 214t-51 129t-107 55q-69 0 -107 -54t-50 -130q-12 -75 -12 -215t36 -235q37 -95 134 -95t133 95q36 96 36 236zM1057 553q0 -256 -127 -415q-126 -158 -360 -158t-361 158t-127 415q0 256 127 414q127 157 359 157t361 -157q128 -158 128 -414z
M893 1343q-37 -96 -162 -110q-63 -6 -155 39t-142 41q-88 -8 -127 -103l-65 142q49 109 164 118q63 6 152 -40t138 -41q90 10 129 98z" />
    <glyph glyph-name="odieresis" unicode="&#xf6;" horiz-adv-x="1138" 
d="M739 528q0 140 -12 214t-51 129t-107 55q-69 0 -107 -54t-50 -130q-12 -75 -12 -215t36 -235q37 -95 134 -95t133 95q36 96 36 236zM1057 553q0 -256 -127 -415q-126 -158 -360 -158t-361 158t-127 415q0 256 127 414q127 157 359 157t361 -157q128 -158 128 -414z
M510 1356q0 -51 -42 -87t-100 -36t-99 36q-40 36 -40 88t41 88q40 36 98 36t100 -37t42 -88zM909 1356q0 -51 -42 -87t-100 -36t-99 36t-41 87t41 88t99 37t100 -37t42 -88z" />
    <glyph glyph-name="divide" unicode="&#xf7;" 
d="M711 346q0 -55 -39 -95t-94 -40t-95 40q-39 40 -39 95t39 94t95 39t94 -39q39 -39 39 -94zM993 600h-831v154h831v-154zM711 1010q0 -54 -39 -94t-94 -40t-95 39q-39 39 -39 95t39 94q39 39 95 39t94 -39q39 -39 39 -94z" />
    <glyph glyph-name="oslash" unicode="&#xf8;" horiz-adv-x="1146" 
d="M774 557q0 131 -31 215l-303 -524q47 -74 133 -74q201 0 201 383zM573 948q-199 0 -198 -389q0 -133 28 -209l304 524q-51 74 -134 74zM1065 553q0 -256 -129 -415t-363 -158q-141 0 -249 67l-97 -166l-69 41l98 172q-174 158 -174 459q0 254 130 413t361 158
q139 0 242 -63l94 162l70 -41l-94 -166q180 -156 180 -463z" />
    <glyph glyph-name="ugrave" unicode="&#xf9;" horiz-adv-x="1165" 
d="M610 -20q-262 0 -376 92t-113 290v742h319v-764q0 -66 37 -106t117 -40t131 27v883h319v-1038q-172 -86 -434 -86zM727 1217h-174l-264 286q21 51 125 52t174 -44z" />
    <glyph glyph-name="uacute" unicode="&#xfa;" horiz-adv-x="1165" 
d="M610 -20q-262 0 -376 92t-113 290v742h319v-764q0 -66 37 -106t117 -40t131 27v883h319v-1038q-172 -86 -434 -86zM905 1503l-264 -286h-174l139 294q70 45 174 44t125 -52z" />
    <glyph glyph-name="ucircumflex" unicode="&#xfb;" horiz-adv-x="1165" 
d="M610 -20q-262 0 -376 92t-113 290v742h319v-764q0 -66 37 -106t117 -40t131 27v883h319v-1038q-172 -86 -434 -86zM583 1532q54 0 91 -37l215 -217l-86 -80l-219 156l-219 -156l-86 80l213 217q37 37 91 37z" />
    <glyph glyph-name="udieresis" unicode="&#xfc;" horiz-adv-x="1165" 
d="M610 -20q-262 0 -376 92t-113 290v742h319v-764q0 -66 37 -106t117 -40t131 27v883h319v-1038q-172 -86 -434 -86zM524 1356q0 -51 -42 -87t-100 -36t-99 36t-41 87t41 88t99 37t100 -37t42 -88zM922 1356q0 -51 -41 -87t-99 -36t-100 36q-41 36 -41 87t41 88t99 37
q57 0 99 -37t42 -88z" />
    <glyph glyph-name="yacute" unicode="&#xfd;" horiz-adv-x="1069" 
d="M1042 1104l-497 -1544h-338l186 440l-364 1104h338l182 -760h2l192 760h299zM866 1503l-264 -286h-174l139 294q71 45 175 44t124 -52z" />
    <glyph glyph-name="thorn" unicode="&#xfe;" horiz-adv-x="1169" 
d="M772 557q0 193 -55 284t-176 91q-59 0 -101 -21v-723q49 -12 84 -12q248 0 248 381zM627 1120q205 0 333 -141t127 -406q0 -265 -141 -425t-356 -160q-88 0 -150 18v-446h-319v2048h317v-527q94 39 189 39z" />
    <glyph glyph-name="ydieresis" unicode="&#xff;" horiz-adv-x="1069" 
d="M1042 1104l-497 -1544h-338l186 440l-364 1104h338l182 -760h2l192 760h299zM494 1356q0 -51 -42 -87t-100 -36t-98 36q-41 36 -41 87t41 88t98 37q58 0 100 -37t42 -88zM893 1356q0 -51 -42 -87t-99 -36t-99 36q-41 36 -41 87t41 88t99 37t99 -37q42 -37 42 -88z" />
    <glyph glyph-name="dotlessi" unicode="&#x131;" horiz-adv-x="561" 
d="M440 0h-319v1104h319v-1104z" />
    <glyph glyph-name="Lslash" unicode="&#x141;" horiz-adv-x="909" 
d="M850 0h-688v741l-109 -53v184l109 52v485h332v-371l147 66v-180l-147 -68v-633h356v-223z" />
    <glyph glyph-name="lslash" unicode="&#x142;" horiz-adv-x="679" 
d="M500 0h-320v748l-123 -64v186l123 62v676h320v-568l141 70v-184l-141 -70v-856z" />
    <glyph glyph-name="OE" unicode="&#x152;" horiz-adv-x="1576" 
d="M428 712q0 -509 266 -509q68 0 105 10v993q-43 14 -105 15q-266 0 -266 -509zM1493 0h-645q-70 -20 -170 -20q-291 0 -439 192q-149 192 -149 534q0 341 148 532t438 192q82 0 174 -21h643v-223h-385v-359h338v-217h-338v-387h385v-223z" />
    <glyph glyph-name="oe" unicode="&#x153;" horiz-adv-x="1751" 
d="M651 224q82 66 82 335t-81 335q-36 30 -90 30t-90 -31q-83 -71 -83 -334q0 -365 172 -364q53 0 90 29zM1188 942q-94 0 -148 -86t-45 -250l377 47q0 289 -184 289zM1276 197q170 0 280 59l74 -197q-154 -79 -398 -79t-351 188q-109 -188 -329 -188t-345 158t-125 414
q0 255 127 414q127 158 342 158t326 -174q51 82 139 128t188 46q238 0 356 -154q117 -155 109 -444l-653 -82q18 -143 86 -195t174 -52z" />
    <glyph glyph-name="Scaron" unicode="&#x160;" horiz-adv-x="991" 
d="M905 422q0 -193 -133 -318q-132 -124 -358 -124t-351 83l76 232q96 -66 205 -66t160 46t51 118t-44 119t-153 94q-281 125 -280 389q0 183 123 309t327 126t326 -82l-70 -203q-98 61 -196 61q-186 0 -185 -162q1 -72 47 -118t144 -88q186 -84 248 -186t63 -230zM501 1501
q-56 0 -93 39l-215 217l83 76l226 -158l223 158l86 -76l-215 -217q-39 -39 -95 -39z" />
    <glyph glyph-name="scaron" unicode="&#x161;" horiz-adv-x="874" 
d="M799 330q0 -150 -115 -249q-116 -99 -312 -99t-317 79l82 203q80 -63 197 -63q61 -1 99 33t38 88t-32 90q-32 35 -109 65q-141 55 -195 132q-53 77 -53 175q0 144 102 242t278 98t306 -80l-78 -182q-70 58 -150 58t-112 -33q-33 -33 -33 -83t36 -85t106 -66
q150 -63 206 -140t56 -183zM440 1204q-56 0 -94 39l-215 217l84 76l225 -160l224 160l86 -76l-215 -217q-39 -39 -95 -39z" />
    <glyph glyph-name="Ydieresis" unicode="&#x178;" horiz-adv-x="1087" 
d="M709 0h-332v592l-373 817h354l201 -532h4l213 532h309l-376 -817v-592zM500 1647q0 -51 -41 -87t-99 -36t-100 36q-41 36 -41 87t41 88t99 37q57 0 99 -37t42 -88zM899 1647q0 -51 -42 -87t-99 -36t-99 36q-41 36 -41 87t41 88t99 37t99 -37q42 -37 42 -88z" />
    <glyph glyph-name="Zcaron" unicode="&#x17d;" horiz-adv-x="966" 
d="M895 0h-860l440 1186h-393v223h805l-424 -1186h432v-223zM484 1501q-54 0 -93 39l-217 217l86 76l225 -158l224 158l86 -76l-217 -217q-40 -39 -94 -39z" />
    <glyph glyph-name="zcaron" unicode="&#x17e;" horiz-adv-x="899" 
d="M829 0h-778l375 897h-338v207h733l-356 -897h364v-207zM450 1204q-54 0 -94 39l-217 217l86 76l226 -160l223 160l86 -76l-217 -217q-39 -39 -93 -39z" />
    <glyph glyph-name="florin" unicode="&#x192;" horiz-adv-x="1241" 
d="M1040 850v-205h-260l-129 -657q-37 -195 -149 -318t-285 -123q-115 0 -209 45l39 222q49 -31 117 -31t108 57t68 203l119 602h-215v205h256l32 158q37 184 120 303q84 119 292 119q125 0 225 -39l-36 -203q-55 23 -115 22q-123 0 -166 -213l-31 -147h219z" />
    <glyph glyph-name="circumflex" unicode="&#x2c6;" horiz-adv-x="507" 
d="M254 1532q53 0 90 -37l215 -217l-86 -80l-219 156l-219 -156l-86 80l215 217q37 37 90 37z" />
    <glyph glyph-name="caron" unicode="&#x2c7;" horiz-adv-x="507" 
d="M254 1204q-55 0 -94 39l-215 217l84 76l225 -160l225 160l84 -76l-215 -217q-39 -39 -94 -39z" />
    <glyph glyph-name="breve" unicode="&#x2d8;" horiz-adv-x="507" 
d="M248 1376q143 0 196 156l105 -29q0 -109 -72 -199t-223 -92q-217 0 -280 197q-15 47 -15 94l107 29q39 -156 182 -156z" />
    <glyph glyph-name="dotaccent" unicode="&#x2d9;" horiz-adv-x="507" 
d="M104 1416q0 62 44 106t106 45q62 -1 105 -45q44 -44 44 -106t-44 -105t-105 -43t-106 43q-44 43 -44 105z" />
    <glyph glyph-name="ring" unicode="&#x2da;" horiz-adv-x="507" 
d="M338 1386q0 35 -25 60q-25 24 -59 24t-60 -24q-24 -24 -24 -60t25 -60t59 -24t60 25q24 24 24 59zM434 1386q0 -76 -52 -128t-128 -52t-128 52t-52 128t52 128t128 52t128 -52t52 -128z" />
    <glyph glyph-name="ogonek" unicode="&#x2db;" horiz-adv-x="507" 
d="M346 -209q0 -56 92 -50q49 3 119 30l33 -93q-94 -49 -198 -62q-104 -14 -176 18q-73 32 -73 111q1 79 55 141t177 126h176q-88 -49 -135 -93q-46 -44 -58 -71t-12 -57z" />
    <glyph glyph-name="tilde" unicode="&#x2dc;" horiz-adv-x="507" 
d="M580 1343q-35 -96 -162 -110q-64 -6 -156 39t-141 41q-88 -8 -127 -103l-66 142q49 109 164 118q62 6 152 -40t139 -41q94 10 129 98z" />
    <glyph glyph-name="hungarumlaut" unicode="&#x2dd;" horiz-adv-x="507" 
d="M230 1528q73 0 79 -47l-239 -264h-113l143 262q57 49 130 49zM525 1528q73 0 83 -47l-241 -264h-111l143 262q53 49 126 49z" />
    <glyph glyph-name="Delta" unicode="&#x394;" horiz-adv-x="1245" 
d="M856 195l-211 757l-33 144h-4q-25 -111 -35 -144l-217 -757h500zM1241 0h-1237l455 1409h327z" />
    <glyph glyph-name="Omega" unicode="&#x3a9;" horiz-adv-x="1411" 
d="M707 1212q-254 0 -254 -444q0 -218 53 -424t141 -344h-569v223h241q-76 105 -133 271t-57 309q1 279 149 453t428 174t428 -174t148 -453q0 -141 -56 -306t-132 -274h239v-223h-569q88 135 141 343t53 425q0 446 -251 444z" />
    <glyph glyph-name="pi" unicode="&#x3c0;" horiz-adv-x="1398" 
d="M846 332v573h-299v-905h-320v905h-135v199h1208v-199h-135v-553q0 -47 7 -76q7 -30 38 -52t90 -17v-207q-125 -14 -214 4t-135 51t-70 88q-25 55 -30 95t-5 94z" />
    <glyph glyph-name="endash" unicode="&#x2013;" horiz-adv-x="860" 
d="M860 592h-860v188h860v-188z" />
    <glyph glyph-name="emdash" unicode="&#x2014;" horiz-adv-x="1720" 
d="M1720 606h-1720v160h1720v-160z" />
    <glyph glyph-name="quoteleft" unicode="&#x2018;" horiz-adv-x="632" 
d="M218 924q-108 0 -126 94l318 590h161l-182 -590q-63 -94 -171 -94z" />
    <glyph glyph-name="quoteright" unicode="&#x2019;" horiz-adv-x="632" 
d="M418 1622q108 0 123 -94l-316 -592h-164l183 592q66 94 174 94z" />
    <glyph glyph-name="quotesinglbase" unicode="&#x201a;" horiz-adv-x="632" 
d="M416 338q109 0 125 -94l-316 -590h-164l183 590q63 94 172 94z" />
    <glyph glyph-name="quotedblleft" unicode="&#x201c;" horiz-adv-x="1077" 
d="M218 924q-108 0 -126 94l318 590h161l-182 -590q-63 -94 -171 -94zM662 924q-110 0 -127 94l317 590h164l-185 -590q-59 -94 -169 -94z" />
    <glyph glyph-name="quotedblright" unicode="&#x201d;" horiz-adv-x="1077" 
d="M418 1622q108 0 123 -94l-316 -592h-164l183 592q66 94 174 94zM862 1622q108 0 123 -94l-317 -592h-164l184 592q66 94 174 94z" />
    <glyph glyph-name="quotedblbase" unicode="&#x201e;" horiz-adv-x="1077" 
d="M416 338q109 0 125 -94l-316 -590h-164l183 590q63 94 172 94zM860 338q109 0 125 -94l-317 -590h-164l184 590q63 94 172 94z" />
    <glyph glyph-name="dagger" unicode="&#x2020;" horiz-adv-x="1236" 
d="M1155 797l-399 24l26 -1261h-329l26 1261l-397 -24v319l397 -24l-26 516h329l-26 -516l399 24v-319z" />
    <glyph glyph-name="daggerdbl" unicode="&#x2021;" horiz-adv-x="1236" 
d="M1155 98l-403 17l22 -555h-311l20 555l-401 -17v256l401 -14l-2 262l2 268l-401 -16v258l401 -16l-20 512h311l-22 -512l403 16v-258l-403 16l2 -268l-2 -262l403 14v-256z" />
    <glyph glyph-name="bullet" unicode="&#x2022;" horiz-adv-x="802" 
d="M692 743q0 -121 -85 -205t-206 -85q-121 0 -205 85q-84 86 -85 206q0 120 86 205q87 85 205 85t204 -85t86 -206z" />
    <glyph glyph-name="ellipsis" unicode="&#x2026;" horiz-adv-x="1902" 
d="M500 166q0 -76 -54 -129t-129 -53q-76 0 -129 53t-53 129t53 129t129 53q75 0 129 -53t54 -129zM1133 166q1 -76 -53 -129t-130 -53t-128 53t-52 129t52 129t128 53t130 -53t53 -129zM1767 166q0 -76 -53 -129t-129 -53t-129 53t-53 129t53 129t129 53t129 -53t53 -129z
" />
    <glyph glyph-name="perthousand" unicode="&#x2030;" horiz-adv-x="2549" 
d="M537 951q0 161 -22 252t-86 91t-86 -91q-21 -91 -21 -252t22 -250t86 -89t85 89q22 89 22 250zM1390 815q-64 0 -86 -91t-22 -252t22 -250t86 -89t86 89q21 89 22 250t-21 252q-23 91 -87 91zM2228 472q0 161 -21 251q-22 90 -87 90q-111 0 -107 -342q0 -160 22 -249
q23 -89 87 -89t85 89t21 250zM682 1266q59 -136 59 -324t-59 -320q-34 -75 -98 -119t-156 -44q-244 0 -298 316q-13 77 -13 168t13 169q53 315 298 318q92 0 157 -44t97 -120zM1227 1389l-482 -1409l-155 38l481 1409zM1702 465q0 -90 -13 -168q-53 -317 -298 -317
q-92 0 -157 44q-64 44 -96 120q-56 135 -58 319q-1 184 58 323q32 76 96 120q65 44 157 44q93 0 157 -44q154 -105 154 -441zM2120 -20q-307 0 -312 483q0 356 182 457q56 30 139 30t147 -44q156 -107 157 -443q0 -187 -59 -321q-33 -74 -98 -118t-156 -44z" />
    <glyph glyph-name="guilsinglleft" unicode="&#x2039;" horiz-adv-x="673" 
d="M559 301l-174 -100l-303 483l305 485l172 -102l-240 -383z" />
    <glyph glyph-name="guilsinglright" unicode="&#x203a;" horiz-adv-x="673" 
d="M592 684l-303 -483l-174 100l239 383l-239 383l174 102z" />
    <glyph glyph-name="fraction" unicode="&#x2044;" horiz-adv-x="372" 
d="M590 1395l-637 -1450l-170 71l637 1448z" />
    <glyph glyph-name="trademark" unicode="&#x2122;" horiz-adv-x="1599" 
d="M606 1294h-188v-585h-152v585h-190v115h530v-115zM1493 709h-147l-64 532l-158 -532h-137l-160 530l-59 -530h-150l103 700h190l148 -526l139 526h193z" />
    <glyph glyph-name="partialdiff" unicode="&#x2202;" 
d="M772 696q-178 47 -287 -50t-109 -278t134 -182q122 0 192 148t70 362zM1069 706q0 -280 -126 -489q-65 -106 -185 -171q-120 -64 -291 -64q-172 0 -279 99q-106 99 -106 273t99 308t251 184q152 49 311 10q-37 147 -152 237q-116 89 -247 119l96 211q228 -37 420 -217
q94 -88 152 -222t57 -278z" />
    <glyph glyph-name="product" unicode="&#x220f;" horiz-adv-x="1642" 
d="M999 889q0 158 -178 158q-43 0 -76 -13v-299q117 -12 186 28q68 40 68 126zM1139 884q0 -136 -108 -207t-286 -54v-353h-139v842q98 47 228 47t218 -69q87 -70 87 -206zM1421 704q0 248 -175 426t-425 178t-425 -178t-175 -426t175 -425t426 -177t425 176t174 426z
M1548 705q0 -301 -213 -515t-514 -213q-301 0 -514 213q-213 212 -213 514t213 514t514 212t514 -212t213 -513z" />
    <glyph glyph-name="summation" unicode="&#x2211;" 
d="M1071 -440h-997l497 981l-487 868h965v-219h-494l352 -608l-397 -768h561v-254z" />
    <glyph glyph-name="minus" unicode="&#x2212;" 
d="M993 575h-831v205h831v-205z" />
    <glyph glyph-name="radical" unicode="&#x221a;" 
d="M37 1020h397l166 -643l4 2l244 1229h278l-372 -1608h-285l-268 834l-164 2v184z" />
    <glyph glyph-name="infinity" unicode="&#x221e;" horiz-adv-x="1728" 
d="M477 850q-70 0 -117 -47t-47 -115t48 -116t118 -48t122 36t126 128q-76 90 -128 126t-122 36zM1413 696q0 70 -48 118t-119 48t-121 -34t-124 -130q76 -92 127 -127t122 -35t117 46q46 44 46 114zM1614 694q0 -160 -100 -268t-265 -109q-119 1 -208 51t-177 162
q-96 -116 -178 -164t-201 -49q-166 -1 -268 105t-102 269t102 273t268 109q115 0 197 -50t182 -169q96 117 177 168t204 51q165 1 267 -109t102 -270z" />
    <glyph glyph-name="integral" unicode="&#x222b;" 
d="M799 1241v-1278q-1 -207 -143 -317t-367 -84v205q193 -10 192 157v1278q-1 207 141 318t367 86v-205q-190 10 -190 -160z" />
    <glyph glyph-name="approxequal" unicode="&#x2248;" 
d="M756 297q-68 0 -182 59t-183 60q-135 0 -229 -94v206q88 88 229 88q73 0 185 -59t180 -59q145 0 237 100v-203q-90 -98 -237 -98zM756 727q-68 0 -182 59t-183 60q-137 0 -229 -92v204q88 88 229 89q73 1 185 -59t180 -60q145 0 237 100v-203q-90 -98 -237 -98z" />
    <glyph glyph-name="notequal" unicode="&#x2260;" 
d="M993 385h-495l-136 -238l-126 70l96 168h-170v188h272l123 211h-395v187h497l129 227l127 -68l-92 -159h170v-187h-272l-121 -211h393v-188z" />
    <glyph glyph-name="lessequal" unicode="&#x2264;" 
d="M993 166h-831v174h831v-174zM993 451l-831 297v159l831 297v-190l-579 -187l579 -186v-190z" />
    <glyph glyph-name="greaterequal" unicode="&#x2265;" 
d="M993 166h-831v174h831v-174zM993 748l-831 -297v190l579 186l-579 187v190l831 -297v-159z" />
    <glyph glyph-name="lozenge" unicode="&#x25ca;" horiz-adv-x="1294" 
d="M965 688l-332 414l-303 -381l332 -414zM1212 705l-565 -705l-565 705l565 704z" />
    <glyph glyph-name="fi" unicode="&#xfb01;" horiz-adv-x="1241" 
d="M676 897h-170v-897h-320v897h-118v207h118v113q0 207 133 310t357 79v-203q-84 4 -127 -33t-43 -127v-139h170v-207zM1116 0h-319v1104h319v-1104zM953 1272q-71 0 -121 44t-50 104t50 104t122 45q70 -1 120 -45t50 -104t-50 -104t-121 -44z" />
    <glyph glyph-name="fl" unicode="&#xfb02;" horiz-adv-x="1251" 
d="M676 897h-170v-897h-320v897h-118v207h118v113q0 207 133 310t357 79v-203q-84 4 -127 -33t-43 -127v-139h170v-207zM1124 0h-319v1608h319v-1608z" />
    </font>
</defs>
</svg>
