<svg xmlns="http://www.w3.org/2000/svg">
<defs>
<font id="5477104b36dba39f8a9851d5b7cc3368" horiz-adv-x='1024' >
  <font-face 
    font-family="COCOGOOSE"
    font-weight="400"
    font-stretch="normal"
    units-per-em="2048"
    panose-1="2 0 0 0 0 0 0 0 0 0"
    ascent="1638"
    descent="-410"
    x-height="1300"
    cap-height="1521"
    bbox="-147 -852 2748 2288"
    underline-thickness="102"
    underline-position="-102"
    unicode-range="U+000D-FB06"
  />
<missing-glyph horiz-adv-x="1400" 
d="M1284 784q-2 0 -3 -1l-46 -17l-6 15l47 18l2 1q3 3 4 3q2 2 2 4l39 59q6 -22 2 -26l-26 -39l-3 -3h2q0 2 2 0l46 -13q2 -1 5 -2t10 -19l-68 19q-2 0 -3 1h-6zM1192 859l104 54l8 -14l-91 -46l24 -45l-14 -8zM1194 902v-1q0 -1 -1 -1t0 -1l77 57l10 -13l-94 -70
q-12 18 -10 22l33 100q1 1 1 2l3 3l-78 -58l-11 12l95 71l11 -16v-7l-35 -99q0 -1 -1 -1zM1071 1050v-9q0 -24 30 -39q27 -8 43 10t15 31t-4 19t-6 8q-3 3 -9 10t-16 7h-12q-16 0 -28 -14q-12 -13 -13 -23zM1104 1103q4 0 18 1q15 1 32 -14t20 -40q3 -24 -3 -30
q-32 -42 -68 -35q-3 1 -9 2t-19 11q-29 29 -17 60q11 32 31 40q3 2 7 3q4 2 8 2zM996 1060l-64 34l53 104l65 -34l-8 -14l-50 26l-15 -30l41 -21l-8 -15l-40 22l-17 -31l51 -27zM918 1206h-7q-17 -9 -11 -16t8 -9t4 -3l4 -4t6 -4l4 -4q2 -3 5 -4l1 -2q18 -18 -2 -44
q-13 -10 -32 -10q-18 0 -26 11t-9 13v3q-2 2 -2 6v3l4 1q9 0 15 -7v-1q8 -13 24 -13t19 10t0 13q-2 3 -3 5l-14 11l-9 9q-18 9 -9 33q4 20 30 20t33 -22q1 -3 3 -7q-12 -5 -16 0l-5 5q-7 7 -15 7zM766 1168q0 12 1 17l12 70l17 -3l-14 -70q-3 -9 3 -20t24 -15t30 12
q4 8 5 12l12 70l16 -2l-13 -71q-10 -42 -57 -38q-7 0 -22 14q-14 12 -14 24zM650 1139l-4 117l16 1l4 -101l51 2l1 -16zM573 1224q0 2 -1 3v-7l-11 -53l45 9l-31 44q-2 2 -2 4zM649 1142l-13 -3q-2 1 -3 1q-3 2 -5 5l-13 16l-58 -11l-4 -21q-4 -9 -10 -9l-9 -2l27 125l16 3z
M413 1193q4 0 5 -1l89 -58q2 -2 2 -4h1q0 -1 1 -1l-38 91l15 6l46 -109q-14 -6 -19 -6q-4 0 -6 1l-88 58q-1 0 -1 1t-1 0l36 -87l-16 -6l-45 109q15 6 19 6zM307 1099q-8 -33 20 -45q12 -8 26 -6q45 7 40 52q-4 16 -16 24q-40 25 -64 -10q-5 -8 -6 -15zM399 1124

<glyph glyph-name=".notdef" horiz-adv-x="1400" 
d="M1284 784q-2 0 -3 -1l-46 -17l-6 15l47 18l2 1q3 3 4 3q2 2 2 4l39 59q6 -22 2 -26l-26 -39l-3 -3h2q0 2 2 0l46 -13q2 -1 5 -2t10 -19l-68 19q-2 0 -3 1h-6zM1192 859l104 54l8 -14l-91 -46l24 -45l-14 -8zM1194 902v-1q0 -1 -1 -1t0 -1l77 57l10 -13l-94 -70
q-12 18 -10 22l33 100q1 1 1 2l3 3l-78 -58l-11 12l95 71l11 -16v-7l-35 -99q0 -1 -1 -1zM1071 1050v-9q0 -24 30 -39q27 -8 43 10t15 31t-4 19t-6 8q-3 3 -9 10t-16 7h-12q-16 0 -28 -14q-12 -13 -13 -23zM1104 1103q4 0 18 1q15 1 32 -14t20 -40q3 -24 -3 -30
q-32 -42 -68 -35q-3 1 -9 2t-19 11q-29 29 -17 60q11 32 31 40q3 2 7 3q4 2 8 2zM996 1060l-64 34l53 104l65 -34l-8 -14l-50 26l-15 -30l41 -21l-8 -15l-40 22l-17 -31l51 -27zM918 1206h-7q-17 -9 -11 -16t8 -9t4 -3l4 -4t6 -4l4 -4q2 -3 5 -4l1 -2q18 -18 -2 -44
q-13 -10 -32 -10q-18 0 -26 11t-9 13v3q-2 2 -2 6v3l4 1q9 0 15 -7v-1q8 -13 24 -13t19 10t0 13q-2 3 -3 5l-14 11l-9 9q-18 9 -9 33q4 20 30 20t33 -22q1 -3 3 -7q-12 -5 -16 0l-5 5q-7 7 -15 7zM766 1168q0 12 1 17l12 70l17 -3l-14 -70q-3 -9 3 -20t24 -15t30 12
q4 8 5 12l12 70l16 -2l-13 -71q-10 -42 -57 -38q-7 0 -22 14q-14 12 -14 24zM650 1139l-4 117l16 1l4 -101l51 2l1 -16zM573 1224q0 2 -1 3v-7l-11 -53l45 9l-31 44q-2 2 -2 4zM649 1142l-13 -3q-2 1 -3 1q-3 2 -5 5l-13 16l-58 -11l-4 -21q-4 -9 -10 -9l-9 -2l27 125l16 3z
M413 1193q4 0 5 -1l89 -58q2 -2 2 -4h1q0 -1 1 -1l-38 91l15 6l46 -109q-14 -6 -19 -6q-4 0 -6 1l-88 58q-1 0 -1 1t-1 0l36 -87l-16 -6l-45 109q15 6 19 6zM307 1099q-8 -33 20 -45q12 -8 26 -6q45 7 40 52q-4 16 -16 24q-40 25 -64 -10q-5 -8 -6 -15zM399 1124
q29 -38 -13 -82q-26 -28 -73 2q-22 15 -22 42q-1 4 -1 8t2 17q1 13 17 24q48 33 86 -4q3 -3 4 -7zM251 1061q-2 -1 -5 -1t-13 -10q-2 -4 -2 -7v-6q4 -7 9 -9h5l22 8l6 3q27 7 38 -7q7 -4 8 -10t4 -15t-12 -24t-28 -16h-5q-2 1 -4 1h-4q-1 1 -2 1h-1q0 14 13 14h2q12 1 16 7
t8 14t-5 16q-9 9 -15 5l-35 -12q-3 -1 -8 -1t-9 2q-24 10 -19 31t11 23q6 3 10 6t14 3q9 0 11 -1l-1 -5q0 -10 -9 -10zM209 977q0 17 -17 15q-6 0 -8 -1q-2 0 -7 -6l-16 -20l28 -23l17 22q2 0 2 2t1 4v7zM225 973q0 -4 -2 -10l63 -1q-10 -17 -21 -17l-52 1l-10 -13l39 -30
l-11 -13l-93 72l26 33q14 14 24 14q38 0 37 -36zM225 882l-35 -64l-102 56l35 64l14 -8l-27 -49l29 -17l23 40l13 -7l-21 -40l30 -17l27 49zM119 799l1 9q0 18 -22 18q-8 0 -13 -6t-5 -7l-9 -25l39 -14zM136 815q0 -15 -3 -22l-8 -24l41 -15l-6 -16l-110 41l15 39
q10 28 47 23q24 -11 24 -26zM1193 291q0 5 13 25l100 -63l-16 -24l-47 31l34 -51l-12 -20l-60 11l46 -30l-15 -24l-98 65q12 19 18 22q3 1 9 1l70 -11l-39 59q-3 4 -3 9zM1168 118q3 6 3 15t-11 22q-11 12 -33 6q-21 -6 -21 -22q0 -41 26 -41q31 0 36 20zM1148 71
q-70 -1 -70 57q0 32 19 45q11 17 45 17t49 -30q7 -14 7 -34t-8 -27q-8 -8 -17 -18t-25 -10zM1064 95q-5 -3 -21 -3t-23 -24q-8 -24 14 -35q13 -13 28 -5q16 9 20 19t8 10t6 1h6l10 -2q-11 -56 -57 -56q-11 -2 -26 4t-22 15t-9 13q-2 5 -4 9q-1 5 -2 25t15 32q11 15 19 17
q9 2 17 4h14q6 0 14 -2q-2 -19 -7 -22zM993 -7q1 0 11 -1t10 -13q0 -18 -16 -18t-16 12q-1 1 -1 8q-1 7 5 9q6 3 7 3zM900 16q0 -6 6 -8h17q31 0 41 -23q10 -27 -12 -41q-6 -4 -18 -13q-13 -9 -28 1q-16 10 -18 14q10 14 16 14h7q1 -1 3 -1l8 -1q4 0 10 3q6 6 6 9v5
q-6 6 -13 6h-9q-31 0 -43 21q-2 4 -2 8v6q7 33 37 33h5q3 -1 11 -3t13 -6q-10 -17 -18 -17h-9q-9 0 -9 -6zM769 -14l-5 26l92 18l5 -26l-33 -7l18 -88l-27 -5l-17 88zM672 10q7 0 11 -4l41 -59q1 -1 1 -2t1 -1l1 -3q0 -3 1 -4l-2 74h29l1 -116l-25 -1l-54 77l1 -77l-28 -2
l-2 118h24zM606 -17q-19 29 -53 2q-15 -12 -2 -35q13 -24 34 -19q21 6 26 27q4 13 -5 25zM588 -95h-12q-21 0 -35 13t-15 18q-2 6 -4 9l-3 15v10t6 22q22 27 50 33q55 0 65 -57q0 -40 -22 -51q-22 -12 -30 -12zM511 -6l-10 -26l-39 17l-16 -41l-26 10l43 108l73 -28l-10 -25
l-47 19l-7 -19zM389 55q1 0 1 1v2v1l-6 -6l-17 -12l18 -11l2 21l1 3q0 1 1 1zM342 24l-15 -11h-11q-2 1 -3 1t-17 11l104 73l20 -12l-17 -126q-22 12 -23 16t-1 6v5l2 14zM286 154l17 20l72 -60l-18 -21l-24 22l-60 -70l-20 18l58 69zM207 106l-50 60l90 76l50 -61l-21 -16
l-32 38l-14 -12l26 -30l-20 -18l-26 31l-15 -12l32 -38zM240 250q-16 -9 -23 -9l-82 9l27 -45l-24 -14l-47 79q20 11 25 10l81 -9l-26 43l24 14zM366 241q138 -143 337 -143t339 140q139 140 139 325q0 184 -101 307q-101 124 -252 166q-56 18 -142 18t-173 -38
q-87 -39 -150 -105q-135 -141 -135 -335q0 -192 138 -335zM707 1098q215 0 365 -156t150 -349q0 -194 -106 -329t-273 -186q-184 -49 -345 23q-193 85 -273 278q-39 94 -39 202q-1 214 152 365q154 152 369 152zM1132 579q0 -154 -97 -276h-571l559 563q109 -133 109 -287z
M415 897q122 109 287 110q166 1 286 -110h-573zM275 569q0 159 97 281h569l-559 -561q-107 121 -107 280zM992 256q-130 -109 -288 -109t-287 109h575z" />
    <glyph glyph-name=".null" horiz-adv-x="0" 
 />
    <glyph glyph-name="nonmarkingreturn" unicode="&#xd;" horiz-adv-x="642" 
 />
    <glyph glyph-name="NULL" horiz-adv-x="0" 
 />
    <glyph glyph-name="NULL" horiz-adv-x="0" 
 />
    <glyph glyph-name="space" unicode=" " horiz-adv-x="642" 
 />
    <glyph glyph-name="exclam" unicode="!" horiz-adv-x="697" 
d="M167 294q0 45 45 45h270q17 0 32 -12.5t15 -32.5v-248q0 -18 -12 -32.5t-35 -14.5h-270q-45 0 -45 47v248zM528 537q0 -45 -45 -45h-266q-15 0 -32.5 12t-17.5 33v1103q0 45 50 46h266q45 0 45 -46v-1103z" />
    <glyph glyph-name="quotedbl" unicode="&#x22;" horiz-adv-x="778" 
d="M435 1477q0 45 45 45h153q45 0 45 -45v-400q0 -45 -45 -45h-153q-45 0 -45 45v400zM97 1477q0 45 45 45h153q45 0 45 -45v-400q0 -45 -45 -45h-153q-45 0 -45 45v400z" />
    <glyph glyph-name="numbersign" unicode="#" horiz-adv-x="1291" 
d="M565 640h149v239h-149v-239zM1140 1158q18 0 31.5 -11.5t13.5 -33.5v-185q0 -27 -17.5 -38t-27.5 -11h-147v-239h147q18 0 31.5 -12t13.5 -33v-185q0 -26 -17.5 -38t-27.5 -12h-147v-315q0 -45 -49 -45h-185q-45 0 -45 45v315h-149v-315q0 -45 -49 -45h-185q-45 0 -45 45
v315h-126q-45 0 -45 50v185q0 45 45 45h126v239h-126q-45 0 -45 49v185q0 45 45 45h126v318q0 18 11.5 31.5t33.5 13.5h185q15 0 32 -12.5t17 -32.5v-318h149v318q0 18 11.5 31.5t33.5 13.5h185q15 0 32 -12.5t17 -32.5v-318h147z" />
    <glyph glyph-name="dollar" unicode="$" horiz-adv-x="1317" 
d="M704 1215q-178 0 -178 -78.5t49.5 -109t168.5 -70.5q119 -39 210.5 -78t195 -123t103.5 -276t-125.5 -321.5t-325.5 -164.5v-147q0 -45 -49 -45h-193q-45 0 -45 45v150q-153 32 -300 138q-34 25 -76 67q-42 43 -43 43.5t-2 2.5t-2.5 2t-13.5 14q-28 30 12 67l177 169
q22 15 36 15q14 1 37 -19t106 -92.5t218 -72.5q181 0 181 142q0 78 -97 113.5t-172 61.5t-259.5 124.5t-184.5 359.5q0 155 102.5 263.5t280.5 142.5v142q0 18 11.5 31.5t33.5 13.5h193q15 0 32 -12t17 -33v-137q194 -34 293.5 -120.5t99.5 -111t-27 -51.5l-156 -167
q-31 -31 -47.5 -19t-43.5 33q-131 108 -217 108z" />
    <glyph glyph-name="percent" unicode="%" horiz-adv-x="1907" 
d="M1346 361q0 -39 34 -73t72 -34t60 9t38 25t25 38t9 60t-35 72.5t-73 34.5t-59 -9t-37.5 -25t-25 -37.5t-8.5 -60.5zM1071 374q0 82 31 153.5t84 125.5t125 84.5t154 30.5t154 -30.5t125.5 -84.5t84.5 -125.5t31 -153.5t-31 -154.5t-84.5 -125.5t-125.5 -83.5t-154 -30.5
t-154 30.5t-125 83.5t-84 125.5t-31 154.5zM322 1156q0 -39 34 -72.5t72 -33.5t60 9t38 25t25 38t9 60t-34 72t-73 34t-60 -8.5t-37.5 -24.5t-25 -38t-8.5 -61zM1178 1521h222q20 0 36 -8.5t16 -21.5t-2 -15l-647 -1431q-11 -26 -21.5 -35.5t-32.5 -9.5h-245q-43 0 -43 27
l2 4l3 14l646 1431q20 45 66 45zM47 1169q0 82 31 154t84 125.5t125 84.5t154 31t154 -31t125.5 -84.5t84.5 -125.5t31 -154t-31 -154t-84.5 -125t-125.5 -84t-154 -31t-154 31t-125 84t-84 125t-31 154z" />
    <glyph glyph-name="ampersand" unicode="&#x26;" horiz-adv-x="1838" 
d="M478 535q0 -87 46.5 -152.5t167.5 -65.5t158 69t39 114l-61 12q-31 7 -31 33t45 243q7 35 39 35q7 0 9 -1l444 -86q3 -1 23 -1t45 16.5t38 46.5q15 11 15 33q11 40 39 40q7 0 9 -1l229 -45q14 0 25.5 -16t11.5 -28t-1 -15q-25 -157 -138.5 -255t-259.5 -98q-33 0 -66 6
l-68 12q-19 -267 -180 -357.5t-394 -90.5t-393 138t-160 345t80.5 284t127.5 110q-107 112 -107 274t130 283.5t368 121.5t305.5 -153t67.5 -270q0 -24 -13.5 -36t-32.5 -12l-210 -1q-44 0 -44 39q0 116 -114 116q-65 0 -91.5 -38.5t-26.5 -68.5q0 -54 28 -103.5t74 -58.5
q45 -8 45 -43q0 -8 -1 -11l-40 -192q-4 -35 -39 -35l-29 2q-56 0 -82.5 -49t-26.5 -90z" />
    <glyph glyph-name="quotesingle" unicode="'" horiz-adv-x="625" 
d="M151 1476q0 45 45 45h200q45 0 45 -45v-397q0 -45 -45 -45h-200q-45 0 -45 45v397z" />
    <glyph glyph-name="parenleft" unicode="(" horiz-adv-x="824" 
d="M729 -60q10 -14 8 -31t-18 -28l-244 -151q-15 -11 -31.5 -8.5t-26.5 19.5q-291 460 -291 1016.5t291 1015.5q10 17 26.5 20t31.5 -9l244 -152q16 -11 18 -27.5t-8 -29.5q-232 -368 -232 -817q0 -450 232 -818z" />
    <glyph glyph-name="parenright" unicode=")" horiz-adv-x="826" 
d="M691 757q0 -556 -291 -1016q-10 -17 -26.5 -20t-31.5 9l-244 151q-34 23 -10 59q230 367 232 816q1 449 -232 819q-10 13 -8 29.5t18 27.5l244 152q15 12 31.5 9t26.5 -20q291 -460 291 -1016z" />
    <glyph glyph-name="asterisk" unicode="*" horiz-adv-x="1006" 
d="M388 1012q9 6 27 6t35 -26l55 -144l55 144q8 24 28 24t34 -4l162 -98q25 -12 25 -46q-3 -5 -3 -17l-112 -126l166 33q17 0 31.5 -12.5t14.5 -33.5v-189q0 -16 -12.5 -33t-33.5 -17l-166 32l112 -126q7 -18 7 -35t-23 -30l-164 -94q-8 -7 -32 -7t-34 23l-55 143l-55 -143
q-10 -23 -32 -23q-21 0 -35 7l-163 96q-25 13 -24 34t8 29l109 126l-163 -32q-46 0 -47 50v189q0 46 47 46l163 -33l-109 126q-8 9 -6 29t26 38z" />
    <glyph glyph-name="plus" unicode="+" horiz-adv-x="921" 
d="M63 723q0 45 46 45h187v198q0 45 49 45h229q45 0 46 -45v-198h187q18 0 31.5 -12t13.5 -33v-208q0 -15 -12.5 -32t-32.5 -17h-187v-199q0 -18 -11.5 -31.5t-34.5 -13.5h-229q-15 0 -32 12.5t-17 32.5v199h-187q-45 0 -46 49v208z" />
    <glyph glyph-name="comma" unicode="," horiz-adv-x="625" 
d="M139 295q0 45 45 45h271q17 0 32.5 -12.5t15.5 -32.5v-294q0 -96 -50.5 -181.5t-143.5 -137.5q-3 -3 -21 -4t-30 15l-71 58q-18 13 -18 30t14 30.5t44.5 45t30.5 76.5v45q0 19 -18 22h-59q-42 2 -42 45v250z" />
    <glyph glyph-name="hyphen" unicode="-" horiz-adv-x="1126" 
d="M171 723q0 45 45 45h698q18 0 31.5 -12t13.5 -33v-208q0 -15 -12 -32t-33 -17h-698q-45 0 -45 49v208z" />
    <glyph glyph-name="period" unicode="." horiz-adv-x="625" 
d="M139 295q0 45 45 45h271q17 0 32 -12.5t15 -32.5v-248q0 -18 -12 -32.5t-35 -14.5h-271q-45 0 -45 47v248z" />
    <glyph glyph-name="slash" unicode="/" horiz-adv-x="1130" 
d="M745 1521h284q20 0 36 -8.5t16 -21.5t-2 -15l-647 -1431q-11 -26 -21.5 -35.5t-31.5 -9.5h-307q-42 0 -42 27l4 18l646 1431q20 45 65 45z" />
    <glyph glyph-name="zero" unicode="0" horiz-adv-x="1769" 
d="M104 758q0 108 28 208.5t106 233t257.5 237.5t391.5 105t391.5 -105t285 -285.5t105.5 -392.5q0 -322 -186.5 -510t-337.5 -230t-259 -42t-207.5 28t-187 79t-158.5 122.5t-122 158t-79 186t-28 207.5zM492 760q0 -172 114 -290.5t282 -118.5t283 118.5t115 289.5
q0 172 -114.5 292t-283.5 120t-282.5 -119.5t-113.5 -291.5z" />
    <glyph glyph-name="one" unicode="1" horiz-adv-x="769" 
d="M56 1365q0 39 45 63l140 69q38 24 117 24h232q20 0 34.5 -12.5t14.5 -32.5v-1431q0 -45 -48 -45h-291q-26 0 -35.5 14t-9.5 29v1128l-140 -69q-5 -2 -10.5 -1.5t-7.5 -3.5q-19 0 -30 14t-11 34v220z" />
    <glyph glyph-name="two" unicode="2" horiz-adv-x="1321" 
d="M1132 337q47 0 47 -46v-239q0 -19 -14 -35.5t-35 -16.5h-943q-19 0 -35.5 16t-16.5 36v153q0 14 7 27l622 743q42 47 42 93q0 76 -46.5 115t-90.5 39q-74 0 -119 -46t-45 -104v-56q0 -16 -13.5 -32.5t-37.5 -16.5h-263q-26 0 -35.5 13.5t-9.5 29.5v53q0 212 147 349.5
t361 137.5t370.5 -130t156.5 -339q0 -174 -158 -347l-352 -397h461z" />
    <glyph glyph-name="three" unicode="3" horiz-adv-x="1227" 
d="M401 510q0 -207 189 -207q121 0 147 67.5t26 113.5q0 87 -46.5 129t-151.5 42h-4q-44 0 -44 40l1 227q0 44 51 44t77 37t26 67q0 147 -105 147t-105 -127h-3l1 -1q0 -42 -52 -42l-78 1h-110q-59 1 -59 45l1 1h-2q0 220 120.5 330t299.5 110t306 -123t127 -284
q0 -162 -109 -271q115 -81 173 -162t58 -203q0 -227 -157 -370.5t-380 -143.5q-157 0 -240 30t-189 111.5t-106 390.5q2 38 48 47h246q13 0 28 -12t15 -23t-1 -11h2z" />
    <glyph glyph-name="four" unicode="4" horiz-adv-x="1348" 
d="M755 578v352l-207 -352h207zM1234 581q48 0 48 -47v-256q0 -17 -14 -32.5t-34 -15.5h-123v-185q0 -45 -49 -45h-278q-45 0 -45 45v184h-648q-56 0 -56 57q0 29 17 52l666 1156q10 17 23 22t44 5h278q15 -1 31.5 -13.5t16.5 -31.5v-895h123z" />
    <glyph glyph-name="five" unicode="5" horiz-adv-x="1238" 
d="M640 1021q90 0 186 -43.5t201 -153t105 -321.5t-120 -328t-218.5 -156.5t-203.5 -40.5v2q-187 0 -323.5 116.5t-184.5 288.5q-7 23 -7 40q1 26 33 29l246 59q3 1 13 1t14 -5t11 -12q2 -53 64.5 -117.5t128.5 -64.5q126 0 157.5 67.5t31.5 113.5q0 85 -62 144t-149 59
q-26 0 -47 -7q-41 -6 -77.5 -12t-82.5 -3h-178q-27 0 -42 11t-17 44l72 738q0 52 50 53h682l9 -1h82q49 0 49 -52l-1 -242q0 -20 -13.5 -35.5t-37.5 -15.5h-504l-15 -166q58 10 148 10z" />
    <glyph glyph-name="six" unicode="6" horiz-adv-x="1267" 
d="M453 496q0 -130 66.5 -160t126 -30t106.5 54.5t47 135.5t-47.5 137t-125 56t-125.5 -55.5t-48 -137.5zM94 509q0 135 66 250q2 2 15.5 26t60.5 105.5t327 585.5q22 45 68 45h291q40 0 40 -24q0 -16 -22 -52q-22 -37 -48.5 -84.5t-53.5 -94.5t-63 -111.5t-79 -140.5
q200 -22 335 -168t135 -354t-155.5 -359.5t-372.5 -151.5t-380.5 138.5t-163.5 389.5z" />
    <glyph glyph-name="seven" unicode="7" horiz-adv-x="1343" 
d="M1271 1522q56 0 56 -60q0 -25 -18 -50l-729 -1377q-18 -35 -57 -35h-364q-37 0 -37 27q0 10 4 18l581 1114h-554q-49 0 -49 47v269q0 20 14.5 33.5t34.5 13.5h1118z" />
    <glyph glyph-name="eight" unicode="8" horiz-adv-x="1269" 
d="M987 873q191 -151 191 -374q0 -224 -152 -370.5t-393 -146.5t-393 146.5t-152 373.5t193 371q-78 111 -78 244q0 173 128 297.5t304 124.5t305.5 -126t129.5 -296q0 -135 -83 -244zM510.5 376q49.5 -51 124.5 -51q74 0 121.5 51.5t47.5 127.5t-46.5 130t-122.5 54
q-77 0 -125.5 -54t-48.5 -130.5t49.5 -127.5zM528 1092q0 -34 32 -66t66 -32q56 0 88 31t32 66q0 56 -32 88t-66 32t-54 -8.5t-34.5 -23.5t-23 -34t-8.5 -53z" />
    <glyph glyph-name="nine" unicode="9" horiz-adv-x="1276" 
d="M811 1024q0 40 -12.5 75.5t-35 61t-54.5 39.5t-91 14t-106.5 -53t-47.5 -137q0 -128 66.5 -160.5t106.5 -32.5t72 15.5t54.5 41.5t35 61t12.5 75zM638 0h-291q-40 0 -40 22t21 55q21 34 48.5 82.5t49 87t39 70t34.5 61.5t34.5 61t38.5 68q-199 20 -335 167t-136 356
t157 359.5t374 150.5q216 0 365.5 -128.5t171.5 -329.5q2 -17 11.5 -97t-71.5 -223l-403 -717q-22 -45 -68 -45z" />
    <glyph glyph-name="colon" unicode=":" horiz-adv-x="625" 
d="M139 1109q0 45 45 45h271q17 0 32 -12t15 -33v-248q0 -19 -12 -33t-35 -14h-271q-45 0 -45 47v248zM139 295q0 45 45 45h271q17 0 32 -12t15 -33v-248q0 -19 -12 -33t-35 -14h-271q-45 0 -45 47v248z" />
    <glyph glyph-name="semicolon" unicode=";" horiz-adv-x="625" 
d="M133 295q0 45 45 45h271q17 0 32 -12t16 -33v-294q-1 -96 -51 -182t-143 -137q-3 -3 -21 -4t-30 15l-71 58q-38 28 1 65t54 62q16 25 16 55v45q0 19 -19 22h-58q-42 2 -42 45v250zM139 1109q0 45 45 45h271q17 0 32 -12t15 -33v-248q0 -19 -12 -33t-35 -14h-271
q-45 0 -45 47v248z" />
    <glyph glyph-name="less" unicode="&#x3c;" horiz-adv-x="912" 
d="M639 1228q20 0 34 -14l164 -163q9 -9 15 -32q-7 -24 -13 -32l-335 -337l335 -337q13 -17 13 -33t-16 -34l-168 -164q-12 -14 -29 -14t-32 14l-535 538q-30 30 0 61l536 536q11 11 31 11z" />
    <glyph glyph-name="equal" unicode="=" horiz-adv-x="1126" 
d="M171 933q0 45 45 45h698q18 0 31.5 -12t13.5 -33v-208q0 -15 -12 -32t-33 -17h-698q-45 0 -45 49v208zM171 505q0 45 45 45h698q18 0 31.5 -12t13.5 -33v-208q0 -15 -12 -32t-33 -17h-698q-45 0 -45 49v208z" />
    <glyph glyph-name="greater" unicode="&#x3e;" horiz-adv-x="912" 
d="M286 1226q20 0 32 -11.5t23 -21.5l514 -513q15 -14 15 -30t-15 -32l-536 -537q-14 -14 -31.5 -14t-28.5 14l-168 164q-17 17 -17 34t13 33l336 337l-336 337q-11 17 -11 33t14 31l144 144q32 32 52 32z" />
    <glyph glyph-name="question" unicode="?" horiz-adv-x="1164" 
d="M397 295q0 45 45 45h271q17 0 32 -12.5t15 -32.5v-248q0 -18 -12 -32.5t-35 -14.5h-271q-45 0 -45 47v248zM442 554q-47 0 -47 68q0 84 9.5 155t101 139t170.5 123.5t79 168.5q0 67 -52.5 118t-124 51t-124 -54t-52.5 -121v-23q0 -40 -51.5 -37.5t-67.5 2.5h-178
q-26 0 -35.5 13.5t-9.5 28.5v34q0 209 154 348t364 139q211 0 362 -143.5t151 -366.5t-138.5 -316t-167 -128.5t-28.5 -78.5q0 -82 -12.5 -101t-62.5 -19h-240z" />
    <glyph glyph-name="at" unicode="@" horiz-adv-x="1737" 
d="M1591 1021l53 81l5 -20q2 -5 -3 -14l-32 -48l-3 -3h2q0 1 3 0l55 -17q2 -1 7 -3t13 -23l-84 24q-2 0 -3 1h-9q-3 0 -4 -1l-57 -21l-7 18l58 23zM1481 1093l130 66l8 -16l-112 -59l30 -55l-18 -10zM1484 1146v-1q0 -1 -1 -1t-1 -1l-1 -2l97 71l12 -15l-116 -87
q-16 20 -14 27l42 125q0 1 1 1t1 1l1 1q1 2 2 3l-98 -72l-12 14l116 88q13 -14 15 -20v-8l-43 -123q0 -1 -1 -1zM1330 1318q0 -6 6 -20q6 -15 23 -23t30 -8q12 1 18 5t16 10t13 23q15 27 -9 51q-29 29 -63 15t-34 -53zM1371 1395l19 1q24 0 36 -11t20 -18q13 -12 13 -37v-13
q1 -5 -1 -9t-4 -15q-2 -10 -9 -17q-8 -7 -11 -11q-3 -5 -16 -11t-23 -6h-15q-5 0 -9 1t-9 2q-6 1 -10 3t-8 6q-4 3 -9 5q-5 7 -9 13q-12 15 -14 43q-2 29 11 44t19 18t11 5q10 6 18 7zM1238 1341l-80 42l66 130l80 -42l-9 -18l-61 33l-20 -38l51 -26l-11 -18l-50 27l-19 -38
l62 -33zM1140 1524h-7q-3 -3 -8 -4q-17 -17 14 -35q2 -2 3 -4t3 -2q8 -6 10 -10l4 -4q19 -19 -3 -53q-5 -3 -12 -8t-17 -5h-14q-24 6 -31 17q-6 10 -8 13q-4 6 -4 11v3l6 2q11 0 17 -9v-1q11 -16 20 -16h12q18 0 21 16q4 11 -6 21t-18 15t-13 13q-5 9 -9 14t3 23q6 17 21 20
q12 5 20 3t13 -3t16 -12t11 -15t2 -6q-10 -5 -17 -3q-5 3 -9 11t-20 8zM952 1482q0 10 1 15l15 87l20 -4l-15 -87q-5 -21 4 -29q10 -7 21 -16t27 2q16 10 25 30l14 87l20 -2l-17 -89q-1 -3 -3 -11t-5 -11q-2 -3 -3 -6q-4 -2 -12 -8q-9 -6 -24 -11q-16 -4 -33 3t-26 24
q-9 16 -9 26zM808 1440l-5 146l19 1l5 -126l65 3l1 -21zM714 1544q0 2 -2 4v-8l-15 -65l57 11l-38 54q-2 2 -2 4zM807 1443l-15 -3q-2 2 -6 2t-6 5l-14 20l-73 -14l-5 -25q-5 -12 -13 -12l-11 -2l33 156l20 3zM514 1507q4 0 5 -2l112 -71l1 -1q1 -3 2 -3t1 -1t1 -1l-47 112
l19 7l56 -134q-18 -7 -23 -7t-8 1l-109 72h-2l-1 1l44 -108l-19 -8l-56 135q20 8 24 8zM392 1350q7 -18 31 -23q23 -5 39 4q14 9 18 17t8 17t0 24q-10 38 -42 45q-24 4 -41 -9q-17 -14 -19 -22q-2 -9 -6 -23t12 -30zM395 1317q-13 8 -25 29t-10 32t1 16q7 20 11 24t15 17
q11 12 23 15l20 4t18 0t11 -4t8 -4t9 -4q4 -4 8 -6t15 -17t12 -29q1 -15 -1 -22t-3 -11q-2 -4 -8 -18t-21 -20q-14 -10 -30 -13t-53 11zM348 1247h3q9 0 22 10t9 20q-3 10 -5 12t-6 9t-16 0l-43 -15q-4 -1 -10 -1t-10 2q-47 20 -10 67q14 12 27 12t17 -1l-1 -6q0 -2 -4 -8
q-5 -6 -14 -7q-18 0 -18 -20v-7q3 -9 10 -11h6l28 10q2 1 7 2t7 3q18 14 40 -10q10 -6 11 -14t2 -11t-2 -16t-15 -26q-12 -12 -31 -15h-6q-4 2 -6 2h-4l-2 1h-1q0 1 -1 1q4 17 16 17zM244 1256h-12q-7 0 -11 -7l-20 -25l36 -28l19 27q2 1 5 7v8q0 2 -4 10t-13 8zM218 1272
q4 2 9 4q6 2 19 2t24 -15t11 -21v-8q0 -6 -2 -12l76 -2q-12 -21 -24 -21l-65 2l-13 -17l48 -37l-12 -17l-116 90l31 42q4 2 7 5t7 5zM281 1120l-43 -79l-127 70l43 79l17 -10l-34 -61l37 -20l28 50l17 -9l-28 -49l38 -23l34 61zM130 1052h-7l-9 -2q-2 -2 -7 -4t-7 -11
l-11 -30l48 -18l11 31l2 9q0 3 -1 5l-2 4t-2 5q-2 2 -4 5q-6 6 -11 6zM122 1072h9q16 -4 24 -13q5 -2 7 -6q2 -3 3 -7q9 -15 2 -35l-10 -31l50 -18l-7 -20l-137 51l19 48q9 31 40 31zM1486 375q-4 8 -4 14t4 10l13 20l123 -79l-18 -30l-60 38l42 -62l-15 -25l-73 13l56 -37
l-19 -29l-122 80l13 19q5 9 13 9h9l86 -13zM1374 188q0 -35 40 -40q17 0 29 11t12 33q0 23 -25 34q-6 3 -13 3h-10q-23 -8 -31 -25q-2 -3 -2 -7v-9zM1408 262h16q22 0 39 -17t19 -25t4 -13t2 -10v-11q0 -20 -10 -36q-10 -17 -21 -23q-11 -5 -19 -9t-23 -4t-25 4t-13 6
q-4 2 -12 8t-11 11q-3 4 -5 9q-1 5 -5 12t-4 13v11q2 24 8 32q5 8 7 13q3 4 7 8t8 7q4 4 12 8q12 6 26 6zM1232 96v12t5 18l7 14q12 24 52 34h18q7 0 16 -3q-2 -31 -23 -31q-27 0 -34 -17q-9 -14 -5 -33t24 -27q20 -9 29 -3q11 7 13 10t5 5l7 9q4 13 8 13q5 0 7 1h8l12 -2
q-7 -37 -18 -46q-31 -25 -62 -25q-49 11 -57 32t-10 28t-2 11zM1221 4q-1 13 13 13q2 1 4 1q16 4 23 -19q-6 -13 -7 -13l-13 -9q-5 0 -7 1q-10 0 -12 12q-3 12 -1 14zM1104 -41q12 17 22 17h7q2 -1 4 -1l7 -2q5 0 7 2l7 2q7 8 7 13v6q-6 6 -14 6h-19q-30 0 -40 14
q-9 14 -9 21v9q3 13 6 17q19 24 35 23t21 -2q5 -2 9 -4t6 -2q3 -1 4 -2q-5 -10 -9 -19q-9 -3 -13 -3h-10q-6 0 -10 -4q-3 0 -3 -2l-2 -4q0 -4 8 -8h25q10 0 14 -2q30 -10 33 -28q7 -16 3 -24l-6 -12t-10 -14q-8 -9 -16 -11q-9 -2 -22 -5t-27 6q-13 9 -15 13zM955 8l-6 34
l115 20l6 -31l-40 -8l22 -110l-34 -6l-21 109zM835 39q11 0 14 -6l51 -73q1 -1 1 -5t4 -8l-3 93h36l1 -145l-31 -1l-66 97l1 -97l-35 -2l-2 147h29zM736 19q-4 1 -10 3t-12 1q-6 -2 -11 -4q-6 -2 -9 -6q-4 -5 -13 -15t2 -31q11 -20 19 -21q7 -2 16 -5t20 4q10 8 14 13
q25 35 -9 58q-4 2 -7 3zM726 56q6 0 10 -2t20 -5t26 -25q14 -16 14 -40t-6 -32t-12 -17t-15 -15q-5 -2 -9 -4t-10 -4l-9 -3q-4 -1 -9 -1h-10q-4 0 -10 2t-10 2q-4 1 -8 3q-22 10 -39 42q-4 24 -4 33t8 26q7 6 11 12q19 28 44 28h18zM636 18l-13 -31l-49 19l-18 -50l-34 13
l55 134l89 -34l-11 -31l-59 21l-8 -21zM484 95v1q0 1 1 2v1l-6 -6q0 -1 -1 -1l-21 -15l22 -15l2 28q0 1 2 3q0 2 1 2zM426 55l-19 -12h-7l-10 1q-2 0 -3 1l-18 11l130 92l23 -16l-19 -156l-22 12q-1 3 -5 6t-4 9v6l2 18zM355 216l23 26l88 -75l-21 -25l-31 27l-73 -87
l-26 22l72 85zM258 158l-62 74l111 95l64 -76l-26 -21l-42 48l-15 -15l31 -37l-25 -22l-32 38l-19 -15l40 -47zM299 336q-20 -11 -29 -11l-101 11l33 -55l-29 -18l-58 98q23 14 29 12l102 -11l-32 55l29 16zM452 1157q-167 -173 -167 -414t170 -417q173 -178 439 -178
q102 0 210 47q221 96 316 315q46 108 46 224q-1 221 -129 378q-118 148 -307 201q-152 48 -313 1q-162 -46 -265 -157zM869 99q-170 0 -319 88t-235 236q-85 148 -85 319q0 271 193 461q189 186 477 186q112 1 232 -53q237 -107 337 -350q49 -116 49 -238q1 -228 -132 -395
q-132 -166 -339 -230q-92 -24 -178 -24zM1406 743q0 -192 -119 -342h-709l693 701q135 -167 135 -359zM516 1140q154 137 359 137t353 -137h-712zM343 735q0 198 120 345h706l-693 -695q-133 152 -133 350zM1234 344q-164 -135 -359 -135t-357 135h716z" />
    <glyph glyph-name="A" unicode="A" horiz-adv-x="1567" 
d="M786 1042q-31 -86 -74.5 -223t-82.5 -245h314zM655 1521h263q22 0 48 -30l25 -58l538 -1387q8 -20 -3.5 -33t-38.5 -13h-294q-43 0 -60 45q-16 45 -36 97t-39 104h-544q-19 -52 -39.5 -104t-36.5 -97t-55 -45h-302q-19 0 -32 10t-5 31l556 1440q3 21 25 30.5t30 9.5z" />
    <glyph glyph-name="B" unicode="B" horiz-adv-x="1443" 
d="M891 1175q-44 44 -111 44h-219v-297h216q107 0 132.5 57.5t25.5 104.5t-44 91zM943 593.5q-46 52.5 -112 52.5h-270v-342h270q66 0 112 51.5t46 118.5t-46 119.5zM209 0q-45 0 -45 44v1430q0 47 45 47h680q182 0 310.5 -130t128.5 -297t-92 -276q74 -68 117 -161t43 -191
q0 -191 -133 -328.5t-314 -137.5h-740z" />
    <glyph glyph-name="C" unicode="C" horiz-adv-x="1442" 
d="M872 1166q-76 0 -146.5 -31.5t-121.5 -87t-79.5 -129t-28.5 -200.5t109.5 -244t259.5 -117t256 80q33 20 56 -9l175 -252q19 -40 -23 -63q-201 -136 -427 -136t-406 105.5t-285.5 284.5t-105.5 391.5t105 393t285.5 286t406.5 105.5q227 0 423 -133q43 -25 23 -65
l-173 -246q-21 -32 -56 -12q-104 79 -247 79z" />
    <glyph glyph-name="D" unicode="D" horiz-adv-x="1584" 
d="M545 1154v-787h86q144 0 222.5 36.5t156 116.5t77.5 244q0 165 -118 277.5t-289 112.5h-135zM148 1474q0 48 48 48h504q322 0 508.5 -178.5t230 -328t43.5 -257.5t-28 -205.5t-106 -226.5t-255.5 -227.5t-392.5 -98.5h-504q-48 0 -48 43v1431z" />
    <glyph glyph-name="E" unicode="E" horiz-adv-x="1382" 
d="M210 0q-45 0 -45 44v1430q0 47 45 47h1017q47 0 47 -50v-253q0 -17 -12.5 -33.5t-35.5 -16.5h-664v-253h512q45 0 45 -39v-222q0 -14 -11 -27.5t-33 -13.5h-513v-261h688q46 0 46 -47v-258q0 -10 -8 -18q-4 -29 -42 -29h-1036z" />
    <glyph glyph-name="F" unicode="F" horiz-adv-x="1328" 
d="M1029 852q46 0 46 -45v-245q0 -17 -11.5 -33t-32.5 -16h-462v-469q0 -44 -47 -44h-312q-37 5 -37 43v1431q0 22 12 34t28 13h980q47 0 47 -50v-253q0 -17 -12.5 -33.5t-35.5 -16.5h-623v-316h460z" />
    <glyph glyph-name="G" unicode="G" horiz-adv-x="1538" 
d="M1032 644q0 45 45 45h279q15 0 32.5 -12t17.5 -33v-496q0 -28 -30 -45q-183 -126 -507 -126q-188 0 -368 105.5t-285 283.5t-105 392.5t104.5 394t285 285t406.5 105.5q227 0 423 -133q46 -27 23 -65l-166 -240q-13 -16 -26.5 -21.5t-36.5 8.5q-108 77 -238 77
q-169 0 -277 -119t-108 -288.5t108.5 -287t276.5 -117.5q51 0 146 19v268z" />
    <glyph glyph-name="H" unicode="H" horiz-adv-x="1640" 
d="M565 45q0 -45 -51 -45h-301q-43 0 -44 40v1436q1 17 13 31t31 14h304q15 0 31.5 -13t16.5 -32v-486h509v486q0 18 13 31.5t33 13.5h300q51 0 51 -43v-1433q0 -45 -48 -45h-303q-46 0 -46 45v582h-509v-582z" />
    <glyph glyph-name="I" unicode="I" 
d="M169 1476q0 45 45 45h301q15 0 32.5 -12.5t17.5 -32.5v-1431q0 -45 -50 -45h-301q-45 0 -45 45v1431z" />
    <glyph glyph-name="J" unicode="J" horiz-adv-x="924" 
d="M358 1480q0 38 40 41h302q55 0 56 -54v-1402q0 -201 -148.5 -344t-343.5 -143t-285 78t-123 128q-3 1 -3 22t16 33l178 167q19 17 35 17q15 0 29 -11.5t44.5 -36.5t67.5 -25q61 0 98 33.5t37 81.5v1415z" />
    <glyph glyph-name="K" unicode="K" horiz-adv-x="1565" 
d="M163 1476q0 18 11.5 31.5t33.5 13.5h303q15 0 32 -12.5t17 -32.5v-558q219 280 437 565q25 39 65 39h389q25 0 25 -13t-12 -27l-482 -636l534 -803q11 -17 11 -30t-23 -13h-387q-39 0 -62 38q-92 126 -202 301.5t-163 254.5l-130 -150v-399q0 -45 -49 -45h-302
q-46 0 -46 45v1431z" />
    <glyph glyph-name="L" unicode="L" horiz-adv-x="1207" 
d="M129 1477q0 18 12.5 31.5t33.5 13.5h303q17 0 31.5 -12.5t15.5 -32.5v-1115h564q18 0 31.5 -12t13.5 -34v-269q0 -17 -12 -31.5t-33 -15.5h-915q-45 0 -45 45v1432z" />
    <glyph glyph-name="M" unicode="M" horiz-adv-x="1967" 
d="M299 1521h354q38 0 49 -39l279 -930l281 930q14 39 52 39h350q18 0 33 -13t17 -32q36 -360 73.5 -715t73.5 -716v-5q0 -40 -45 -40h-290q-47 0 -49 45l-89 792l-231 -797q-2 -10 -15 -24.5t-25 -14.5h-269q-12 0 -26 14t-15 25l-230 795l-90 -790q-2 -45 -50 -45h-290
q-44 0 -44 45l147 1431q2 18 14 31.5t35 13.5z" />
    <glyph glyph-name="N" unicode="N" horiz-adv-x="1678" 
d="M214 0q-45 0 -45 44v1432q0 45 45 45h335q35 0 56 -32q130 -210 258 -414t259 -413v820q9 39 45 39h292q22 0 36 -12t14 -33v-1436q0 -40 -46 -40h-326q-22 0 -45 34q-136 225 -269.5 445t-270.5 446v-880q0 -45 -47 -45h-291z" />
    <glyph glyph-name="O" unicode="O" horiz-adv-x="1745" 
d="M94 758.5q0 108.5 28 208.5t105.5 233t257 238t391.5 105q213 0 393.5 -105.5t285.5 -286t105 -448t-187.5 -455t-338 -229.5t-258.5 -42t-208 28t-187 79t-158 122.5t-122 158t-79 186t-28 208zM877 355q167 0 277.5 116.5t110.5 287.5t-109.5 289t-278.5 118
t-278.5 -118.5t-109.5 -288.5q0 -171 110.5 -287.5t277.5 -116.5z" />
    <glyph glyph-name="P" unicode="P" horiz-adv-x="1375" 
d="M542 1196v-342h217q70 0 113.5 51t43.5 101q0 87 -44 138.5t-113 51.5h-217zM190 0q-45 0 -45 44v1430q0 47 45 47h655q205 0 339 -152t134 -345q0 -194 -132.5 -342.5t-333.5 -150.5h-310v-487q0 -44 -47 -44h-305z" />
    <glyph glyph-name="Q" unicode="Q" horiz-adv-x="1745" 
d="M877 355q167 0 277.5 116.5t110.5 287.5t-109.5 289t-278.5 118t-278.5 -118.5t-109.5 -288.5q0 -171 110.5 -287.5t277.5 -116.5zM94 744q0 124 28 223.5t105.5 232.5t257 238t391.5 105q213 0 393.5 -105.5t285.5 -286t105 -392.5q0 -276 -165.5 -487t-423.5 -271v-277
q0 -45 -49 -46h-302q-45 0 -45 46v279q-255 62 -375 216t-163 277.5t-43 247.5z" />
    <glyph glyph-name="R" unicode="R" horiz-adv-x="1440" 
d="M925 1137q-44 55 -112 65q-72 5 -108 5h-142v-376h189q84 0 120.5 21t66.5 60t30 105q0 65 -44 120zM212 0q-45 0 -45 44v1430q0 47 45 47h661q210 0 358 -146t148 -351t-99 -300t-155 -127l264 -496q7 -14 18 -33.5t11 -33.5q0 -34 -40 -34h-351q-41 0 -49 38l-249 468
h-166v-462q0 -44 -47 -44h-304z" />
    <glyph glyph-name="S" unicode="S" horiz-adv-x="1343" 
d="M701 1215q-164 0 -164 -79t49 -108.5t168 -69.5t210.5 -79t195.5 -123.5t104 -292.5t-170 -345t-411 -137t-458 154q-56 41 -113 105l-3 3q-1 2 -2.5 2.5t-2.5 1.5q-1 2 -2.5 2.5t-13.5 14.5q-28 30 12 67l178 169q22 15 35 15q13 1 37 -19q23 -20 106 -92.5t218 -72.5
q181 0 181 142q0 77 -96.5 113t-172.5 62t-260 125.5t-184 358.5q0 190 148 305.5t405 115.5t383.5 -108t126.5 -132.5t-26 -52.5l-157 -167q-31 -31 -53 -15t-43 33q-119 104 -225 104z" />
    <glyph glyph-name="T" unicode="T" horiz-adv-x="1363" 
d="M82 1476q0 20 14 32.5t34 12.5h1103q18 0 32.5 -11.5t16.5 -33.5v-255q0 -18 -13 -35.5t-36 -17.5h-353v-1120q0 -18 -13.5 -33t-35.5 -15h-301q-17 0 -32.5 14t-15.5 34v1120h-352q-20 0 -34 13.5t-14 39.5v255z" />
    <glyph glyph-name="U" unicode="U" horiz-adv-x="1587" 
d="M557 607q0 -140 71 -209t179 -69t180 73.5t72 204.5v869q0 18 12.5 31.5t34.5 13.5h299q24 0 37 -14t13 -31v-864q0 -336 -181.5 -486t-547.5 -150t-466 230t-100 406v864q0 17 11.5 31t29.5 14h307q15 0 32 -13t17 -32v-869z" />
    <glyph glyph-name="V" unicode="V" horiz-adv-x="1505" 
d="M56 1521h330q39 0 53 -39l313 -932q57 160 151 453t161 479q14 39 56 39h323q43 0 43 -32q0 -8 -1 -11v-3l-529 -1376q-25 -69 -43.5 -84t-33.5 -15h-253q-32 0 -42 22q-18 29 -37 77l-525 1376l-4 17q0 29 38 29z" />
    <glyph glyph-name="W" unicode="W" horiz-adv-x="2207" 
d="M57 1521h330q39 0 53 -39l314 -933l289 933q14 39 57 39h333q43 0 43 -32q0 -8 -1 -11v-3l-183 -523l138 -402l331 932q14 39 57 39h322q43 0 43 -32q0 -8 -1 -11v-3q-99 -254 -290 -723t-284 -713q-4 -11 -18.5 -25t-35.5 -14h-250q-41 0 -52 32l-161 426
q-35 -93 -69 -182.5t-54 -143.5q-29 -81 -45.5 -106.5t-43.5 -25.5h-251q-33 0 -43 22q-24 41 -96 230q-72 190 -267.5 701t-202.5 539q0 29 38 29z" />
    <glyph glyph-name="X" unicode="X" horiz-adv-x="1488" 
d="M35 0q-21 0 -21 17t39 73l461 688q-118 177 -233 350.5t-177 265.5t-65.5 99.5t-4.5 15.5q2 8 11.5 8t20.5 5h356q38 0 59 -39l251 -377l254 377q22 39 60 39h278t108 -13t-12 -27l-471 -704l481 -717q22 -30 20 -46q0 -15 -18 -15h-367q-37 0 -54 38l-279 413l-275 -413
q-18 -38 -55 -38h-367z" />
    <glyph glyph-name="Y" unicode="Y" horiz-adv-x="1443" 
d="M25 1507q0 14 15 14h394q7 -2 15 -3t24 -29l250 -530l248 530q14 28 22.5 29t15.5 3h394q16 1 16 -13t-14 -28l-485 -859v-573q0 -48 -48 -48h-307q-43 0 -43 48v575l-484 857q-13 13 -13 27z" />
    <glyph glyph-name="Z" unicode="Z" horiz-adv-x="1466" 
d="M159 1168q-48 0 -48 51v257q0 20 12.5 32.5t35.5 12.5h1189q19 0 33 -11.5t14 -33.5v-207q0 -21 -6 -34l-742 -884h704q19 0 32.5 -11t13.5 -35v-255q0 -17 -13 -33.5t-33 -16.5h-1189q-20 0 -34 13.5t-14 36.5v220q0 16 7 27l739 871h-701z" />
    <glyph glyph-name="bracketleft" unicode="[" horiz-adv-x="858" 
d="M164 1635q0 45 45 45h444q45 -3 45 -45v-243q0 -22 -13 -34.5t-32 -12.5h-124v-1359h124q18 0 31.5 -13t13.5 -34v-244q0 -42 -45 -45h-444q-45 0 -45 45v1940z" />
    <glyph glyph-name="backslash" unicode="\" horiz-adv-x="1112" 
d="M81 1521h284q45 0 65 -45l647 -1431q1 -18 4 -18q0 -27 -43 -27h-306q-22 0 -32.5 9.5t-21.5 35.5l-646 1431q-2 2 -2 5t-2 8q0 32 53 32z" />
    <glyph glyph-name="bracketright" unicode="]" horiz-adv-x="858" 
d="M697 -305q0 -45 -45 -45h-443q-45 3 -45 45v244q0 22 12.5 34.5t32.5 12.5h124v1359h-124q-19 0 -32 12.5t-13 34.5v243q0 42 45 45h443q45 0 45 -45v-1940z" />
    <glyph glyph-name="asciicircum" unicode="^" horiz-adv-x="1000" 
d="M499 1635q15 0 30 -15l381 -379q14 -13 14 -31t-14 -29l-131 -133q-35 -35 -67 -6l-212 214l-214 -214q-16 -11 -32 -11t-31 15l-131 130q-15 12 -15 32t13 33l379 379q15 15 30 15z" />
    <glyph glyph-name="underscore" unicode="_" horiz-adv-x="1374" 
d="M169 234q0 45 45 46h944q18 0 31.5 -12t13.5 -34v-185q0 -28 -17.5 -38.5t-27.5 -10.5h-944q-45 0 -45 49v185z" />
    <glyph glyph-name="grave" unicode="`" horiz-adv-x="565" 
d="M488 1443.5q0 -19.5 -26 -19.5h-224q-31 0 -56 43l-100 221q-19 41 -4 53t31 12h264q45 0 54 -43l53 -211l4 -18q4 -18 4 -37.5z" />
    <glyph glyph-name="a" unicode="a" horiz-adv-x="1584" 
d="M453 648q0 -137 82 -228.5t216 -91.5t227 92t93 228q0 135 -93 231.5t-227 96.5t-216 -95.5t-82 -232.5zM752 1321q203 0 355 -217l40 124q21 55 33 66.5t49 11.5h152q34 0 57 -20t23 -56v-1154q0 -40 -26 -59q-17 -17 -54 -17h-201q-39 0 -53 17.5t-29 61.5l-30 77
q-84 -84 -154.5 -132t-162.5 -48t-178 24t-198.5 90t-201.5 219.5t-89 317.5q0 304 193.5 499t474.5 195z" />
    <glyph glyph-name="b" unicode="b" horiz-adv-x="1556" 
d="M1104 648q0 138 -82.5 233t-215.5 95t-226.5 -97.5t-93.5 -229.5v-14q6 -129 98.5 -218t223.5 -89t213.5 91t82.5 229zM408 0h-203q-82 0 -82 79v1530q0 50 31 64t45 14h232q39 0 61.5 -23t22.5 -55v-467q78 83 149 131t190 48q120 0 237 -51.5t249.5 -194t132.5 -426.5
t-181.5 -478.5t-456.5 -194.5q-127 0 -209.5 77.5t-110.5 105.5l-29 -80q-9 -19 -15 -34t-17.5 -30t-45.5 -15z" />
    <glyph glyph-name="c" unicode="c" horiz-adv-x="1264" 
d="M1181 1130q0 -18 -13 -37l-91 -155q-29 -50 -60 -50t-69 25q-96 63 -180 63q-149 0 -230.5 -96.5t-81.5 -231.5t81.5 -227.5t197.5 -92.5t220 72q22 16 53 16t56 -38l115 -173q14 -22 14 -45q0 -22 -47 -55q-187 -129 -395 -129q-274 0 -434.5 158t-197 289.5
t-36.5 225.5t24 181.5t89 199.5t218 201.5t354 89.5t367 -118l-3 3q49 -28 49 -76z" />
    <glyph glyph-name="d" unicode="d" horiz-adv-x="1582" 
d="M451 648q0 -137 82 -228.5t213 -91.5q133 0 225 88.5t98 218.5v14q0 134 -93 230.5t-227 96.5t-216 -95.5t-82 -232.5zM214 222.5q-132 141.5 -132 426.5t180 478.5t458 193.5q142 0 216.5 -74.5t102.5 -104.5v468q0 33 20 55.5t60 22.5h231q49 0 66 -30.5t17 -47.5
v-1531q0 -79 -83 -79h-201q-36 0 -47 15t-17.5 29.5t-15.5 34.5l-30 80q-84 -84 -154.5 -133.5t-164.5 -49.5q-139 0 -256.5 52.5t-249.5 194z" />
    <glyph glyph-name="e" unicode="e" horiz-adv-x="1449" 
d="M728 1009q-123 0 -214 -119q-26 -34 -43 -69h523q-51 93 -111 140q-60 48 -155 48zM82 626q0 304 183 496q118 126 285 174q84 25 173 25q260 0 448 -185t188 -429q0 -53 -2 -87t-16 -54q-25 -36 -145 -36h-737q18 -119 104 -173q86 -55 167 -55t161 27t122 66
q33 27 55 27t56 -36l109 -123q17 -20 17 -50t-38 -57q-193 -178 -441 -176q-140 0 -265 51t-219 142q-93 91 -149 213t-56 240z" />
    <glyph glyph-name="f" unicode="f" horiz-adv-x="887" 
d="M61 1085q0 79 80 79h106v118q0 187 149 325q149 137 345 137h21q73 0 73 -79v-196q0 -38 -20 -63t-53 -25h-21q-68 0 -100 -60q-9 -18 -9 -39v-118h161q72 0 72 -79v-187q0 -83 -72 -85h-161v-734q0 -39 -26 -59t-57 -20h-221q-37 0 -59 23t-22 56v734h-106q-80 0 -80 85
v187z" />
    <glyph glyph-name="g" unicode="g" horiz-adv-x="1573" 
d="M1000 420q92 88 98 215v34q-6 125 -99.5 217t-223.5 92t-213 -93.5t-83 -232.5t82 -229.5t215 -90.5q132 0 224 88zM111 653q0 283 182.5 476.5t459.5 193.5q157 0 236.5 -88.5t110.5 -126.5l39 122q6 17 11 31.5t17.5 29.5t50.5 15h152q34 0 58 -21t23 -55v-1043
q0 -311 -190.5 -491t-485.5 -180q-194 0 -343.5 76t-160 121.5t15.5 80.5l97 134q27 29 50.5 31t59.5 -25q79 -76 251 -76t252 83.5t79 155.5t-1 118q-30 -32 -104 -117t-218 -85q-277 0 -459.5 178.5t-182.5 461.5z" />
    <glyph glyph-name="h" unicode="h" horiz-adv-x="1438" 
d="M123 1610q0 78 83 78h231q23 0 51 -17t28 -59v-448q69 105 157.5 131t176.5 26t179.5 -45t189 -164t97.5 -362v-671q0 -79 -71 -79h-236q-44 0 -60.5 15t-16.5 58v677q0 85 -61 146t-150 61q-121 0 -161.5 -79.5t-43.5 -125.5v-676q0 -76 -79 -76h-231q-83 0 -83 79v1531
z" />
    <glyph glyph-name="i" unicode="i" horiz-adv-x="637" 
d="M435 1818q80 0 80 -79v-200q0 -27 -22.5 -56t-57.5 -29h-237q-76 0 -76 85v200q0 43 18.5 61t57.5 18h237zM515 79q0 -79 -83 -79h-234q-76 0 -76 79v1142q0 33 18.5 56t57.5 23h234q47 0 65 -30.5t18 -48.5v-1142z" />
    <glyph glyph-name="j" unicode="j" horiz-adv-x="643" 
d="M436 1818q80 0 80 -79v-200q0 -27 -22.5 -56t-57.5 -29h-237q-76 0 -76 85v200q0 43 18.5 61t57.5 18h237zM128 1221q0 40 25.5 59.5t56.5 19.5h232q37 0 57.5 -23.5t20.5 -55.5v-1176q0 -189 -146.5 -324.5t-338.5 -135.5h-25q-37 2 -56.5 23t-19.5 51v146
q0 37 23.5 59.5t55.5 22.5h22q38 0 65.5 54t27.5 104v1176z" />
    <glyph glyph-name="k" unicode="k" horiz-adv-x="1446" 
d="M1428 43q0 -26 -12.5 -34.5t-38.5 -8.5h-346q-29 0 -66 53l-335 474l-114 -117v-331q0 -48 -23.5 -63.5t-45.5 -15.5h-257q-46 0 -56.5 33t-10.5 35v1541q0 43 13 60.5t67 17.5h244q66 0 66 -68v-758l369 410q27 30 63 29h315q56 0 56 -44q0 -17 -19 -38l-420 -445
l529 -680h-2q24 -24 24 -50z" />
    <glyph glyph-name="l" unicode="l" horiz-adv-x="634" 
d="M123 1609q0 78 73 78h250q22 -1 44 -23t22 -55v-1530q0 -39 -22 -59t-57 -20h-237q-40 0 -57 20q-16 20 -16 59v1530z" />
    <glyph glyph-name="m" unicode="m" horiz-adv-x="2182" 
d="M206 1300h154q51 0 63 -32t17 -47l32 -131q47 100 114 165.5t210 65.5q251 0 391 -206q79 132 191 169t208 37t187 -45t188 -163t97 -363v-671q0 -79 -70 -79h-237q-44 0 -60.5 15t-16.5 58v677q0 88 -52 147.5t-135 59.5t-140 -59t-57 -148v-671q0 -79 -70 -79h-237
q-44 0 -60.5 15t-16.5 58v677q0 89 -49.5 148t-135.5 59q-121 0 -161.5 -79.5t-43.5 -125.5v-676q0 -76 -79 -76h-231q-83 0 -83 79v1146q0 42 33 61l-6 -3q20 17 56 17z" />
    <glyph glyph-name="n" unicode="n" horiz-adv-x="1479" 
d="M206 1300h154q51 0 63 -32t17 -47l32 -131q68 146 178 188.5t210 42.5t194.5 -45t198.5 -166t104 -360v-671q0 -79 -71 -79h-236q-44 0 -60.5 15t-16.5 58v666q0 86 -71.5 152t-154.5 66t-154 -64t-77 -152v-665q0 -76 -79 -76h-231q-83 0 -83 79v1146q0 42 33 61l-6 -3
q20 17 56 17z" />
    <glyph glyph-name="o" unicode="o" horiz-adv-x="1508" 
d="M538 420q81 -92 214 -92t211.5 91t78.5 229q0 137 -78.5 232.5t-211.5 95.5t-214 -96t-81 -232t81 -228zM83 649q0 94 24 181.5t90.5 200.5t219.5 201.5t316 88.5q305 0 499.5 -195.5t194.5 -476.5q0 -184 -89.5 -338t-244 -244.5t-336.5 -90.5q-281 0 -441.5 159
t-196.5 289.5t-36 224.5z" />
    <glyph glyph-name="p" unicode="p" horiz-adv-x="1563" 
d="M1023 878q-83 94 -212 94t-224 -90.5t-101 -216.5v-16q0 -135 96 -229.5t226 -94.5q131 0 214.5 93t83.5 230q0 136 -83 230zM205 1306h154q49 0 61 -31t17 -47l43 -124q29 37 97 127t262 90q278 0 460.5 -194t182.5 -478t-183.5 -478.5t-460.5 -194.5
q-162 0 -228.5 72.5t-94.5 103.5v-478q0 -31 -18.5 -52t-57.5 -21h-234q-50 0 -66 28t-16 45v1556q0 32 24 54q23 22 58 22z" />
    <glyph glyph-name="q" unicode="q" horiz-adv-x="1563" 
d="M540 418.5q84 -93.5 215 -93.5t226.5 94t95.5 230v16q-6 128 -101 217.5t-224 89.5t-212.5 -94.5t-83.5 -229.5q0 -136 84 -229.5zM726 1321q193 0 357 -217l44 124q8 33 23.5 55.5t52.5 22.5h156q34 0 58 -22t24 -54v-1553q0 -49 -35 -61t-47 -12h-235q-40 0 -57.5 21.5
t-17.5 51.5v475q-159 -176 -311 -176q-290 0 -473 194t-183 479t182 478.5t462 193.5z" />
    <glyph glyph-name="r" unicode="r" horiz-adv-x="1178" 
d="M515 79q0 -79 -82 -79h-230q-80 0 -80 79v1146q0 38 27 56q27 19 55 19h154q44 0 56.5 -32.5t17.5 -41.5q9 -15 24 -56.5t23 -61.5q31 34 98 123.5t177 89.5t180 -28.5t169 -101.5q71 -38 26 -113l-93 -158q-42 -65 -114 -29q-87 85 -191 85t-149.5 -60.5t-67.5 -95.5
v-741z" />
    <glyph glyph-name="s" unicode="s" horiz-adv-x="1185" 
d="M522 305q175 0 175 85q0 52 -44 74q-23 12 -53 21t-70 22q-335 90 -394 304q-18 67 -18 145q0 165 129 268t344 103q126 0 227 -44t198 -146q36 -43 -4 -76q-90 -74 -153 -136q-43 -35 -83 10q-66 73 -176 73t-104 -71q4 -60 109 -80q104 -20 207 -66q103 -47 159 -97
q117 -106 118 -300t-149 -307q-150 -114 -371 -114q-222 0 -380 113q-55 39 -88 82t-32 76q2 32 24 49l132 132q25 20 43 14q18 -7 48 -35q49 -48 113 -73q65 -26 93 -26z" />
    <glyph glyph-name="t" unicode="t" horiz-adv-x="879" 
d="M512 0h-231q-79 0 -79 79l-1 823h-75q-79 0 -79 83v198q0 78 79 78h75l1 242q0 32 21 48t60 30l232 81q5 1 10 1h9q38 0 50 -22t13 -58l-1 -322h171q72 0 74 -78v-198q-1 -43 -21 -63t-53 -20h-171l1 -823q0 -79 -85 -79z" />
    <glyph glyph-name="u" unicode="u" horiz-adv-x="1479" 
d="M1119 0q-59 0 -80 80l-31 131q-69 -146 -179 -188.5t-209 -42.5t-194 45t-199 165.5t-104 360.5v671q0 78 71 78h236q44 0 60.5 -14.5t16.5 -57.5v-667q0 -86 71.5 -152t153.5 -66t157 65t75 151v666q0 75 78 75h232q83 0 83 -78v-1146q0 -40 -33 -62l6 3
q-20 -17 -56 -17h-155z" />
    <glyph glyph-name="v" unicode="v" horiz-adv-x="1306" 
d="M89 1300h262q59 0 75 -54q17 -54 38 -122t44 -139.5t46 -141.5t49.5 -154.5t47.5 -138.5l217 695q13 33 30 44t48 11h269q78 0 71.5 -35t-13.5 -53l-488 -1168q-27 -44 -72 -44h-122q-65 0 -83 44l-472 1155q-20 42 -7.5 71.5t60.5 29.5z" />
    <glyph glyph-name="w" unicode="w" horiz-adv-x="1972" 
d="M94 1300h262q59 0 75 -54q17 -54 38 -121.5t44.5 -137t73 -222t69.5 -205.5l217 685q13 33 30.5 44t47.5 11h243q54 0 64 -22t-7 -66l-112 -275q7 -17 74.5 -153.5t98.5 -218.5l251 680q13 33 27 44t41 11h227q49 0 67.5 -18t1.5 -70l-480 -1168q-22 -44 -83 -44h-108
q-60 0 -88 46l-190 465l-187 -467q-27 -44 -73 -44h-122q-65 0 -83 44l-472 1155q-20 42 -7.5 71.5t60.5 29.5z" />
    <glyph glyph-name="x" unicode="x" horiz-adv-x="1394" 
d="M115 1300h321q17 0 30 -14.5t30 -38.5l195 -316q45 66 110 177.5t90 151.5t61 40h325q27 0 41 -20.5t-9 -46.5l-401 -565l399 -557q50 -70 25 -90.5t-58 -20.5h-332q-46 0 -69 53l-182 328l-184 -332q-23 -49 -63 -49h-356q-30 0 -42 29q-5 24 3 38t14 23l408 575
l-386 548q-43 55 -20.5 71t50.5 16z" />
    <glyph glyph-name="y" unicode="y" horiz-adv-x="1453" 
d="M442 -513q-80 0 -80 60q0 30 10 40l160 418l-488 1197q-16 41 -0.5 70.5t70.5 29.5h253q47 0 66 -56l290 -824l284 824q11 33 28.5 44.5t47.5 11.5h264q97 0 64 -89q-85 -209 -157.5 -390t-124 -308.5t-100 -250.5t-93.5 -236t-82.5 -207.5t-65 -166.5t-42.5 -111l4 5
q-15 -61 -71 -61h-237z" />
    <glyph glyph-name="z" unicode="z" horiz-adv-x="1229" 
d="M193 975q-82 0 -82 85v166q0 36 22 58t60 22h862q33 0 58 -20t25 -60v-178q0 -28 -13 -47l-564 -669h506q81 0 81 -83v-161q0 -31 -22 -60q-22 -28 -59 -28h-903q-30 0 -56 26t-27 62v141q0 35 17 56q72 80 282 328t311 362h-498z" />
    <glyph glyph-name="braceleft" unicode="{" horiz-adv-x="908" 
d="M622 537v-489q0 -47 34 -81t80 -34h19q18 0 31.5 -14.5t13.5 -37.5v-317q0 -49 -52 -52h-21q-190 0 -340.5 132t-150.5 318v482q0 8 -8.5 16.5t-16.5 8.5h-88q-45 0 -45 49v298q0 45 45 45h83q30 0 30 29v462q0 186 150.5 318t340.5 132h21q52 -5 52 -51v-309
q0 -23 -13.5 -37.5t-31.5 -14.5h-19q-46 0 -80 -34t-34 -81v-479q0 -65 -58 -128q58 -68 58 -131z" />
    <glyph glyph-name="bar" unicode="|" horiz-adv-x="628" 
d="M166 1476q0 45 45 45h192q15 0 32.5 -12.5t17.5 -32.5v-1824q0 -45 -50 -45h-192q-45 0 -45 45v1824z" />
    <glyph glyph-name="braceright" unicode="}" horiz-adv-x="900" 
d="M260 796v479q0 47 -34 81t-81 34h-18q-18 0 -31.5 14.5t-13.5 37.5v309q0 46 51 51h21q192 0 342 -133.5t150 -316.5v-462q0 -29 30 -29h83q45 0 45 -45v-298q0 -49 -45 -49h-88q-8 0 -16.5 -8t-8.5 -17v-482q0 -183 -150 -316.5t-342 -133.5h-21q-51 3 -51 52v317
q0 23 13.5 37.5t31.5 14.5h18q47 0 81 34t34 81v489q0 62 57 131q-57 64 -57 128z" />
    <glyph glyph-name="asciitilde" unicode="~" horiz-adv-x="1349" 
d="M466 877q126 0 246 -73l84 -54q30 -20 78 -20t79 45l40 59q11 17 31 17t37 -11l153 -104q29 -24 10 -62l-41 -57q-119 -168 -320 -168q-111 -4 -228 71l-83 54q-33 20 -79 20t-79 -44l-41 -60q-25 -32 -67 -6l-153 104q-18 10 -18 24q0 19 40.5 91.5t136.5 123t174 50.5z
" />
    <glyph glyph-name="exclamdown" unicode="&#xa1;" horiz-adv-x="625" 
d="M500 1005q0 -45 -45 -45h-271q-17 0 -32 12t-15 33v247q1 18 13 32t34 15h271q45 0 45 -47v-247zM500 -342q0 -45 -50 -45h-267q-45 0 -45 45v1104q0 45 45 45h267q15 0 32 -12t18 -33v-1104z" />
    <glyph glyph-name="cent" unicode="&#xa2;" horiz-adv-x="1115" 
d="M829 695l-23 3q-2 0 -8 5q-21 16 -69.5 34.5t-93.5 18.5q-92 0 -155.5 -67.5t-63.5 -162.5t64.5 -159.5t153.5 -64.5t159 52h4q12 2 18 -7q37 -11 58 -45l100 -156q3 -6 3 -14t-14 -16q3 -5 3 -16q0 -22 -62 -50.5t-122 -46.5v-140q0 -15 -10 -28t-30 -13h-241
q-39 0 -39 41v142q-173 53 -280.5 196t-107.5 328t107 330t281 198v139q0 43 39 43h241q14 0 27 -14t13 -29v-136q67 -18 113 -44q47 -27 53 -33.5t15 -20.5t9 -24q0 -11 -6 -22l-109 -199q-14 -22 -27 -22z" />
    <glyph glyph-name="sterling" unicode="&#xa3;" horiz-adv-x="1149" 
d="M138 1022q0 218 155.5 367t369.5 149q165 0 303 -83q40 -24 40 -61q0 -16 -9 -25l-93 -183q-17 -31 -41 -31h-2q-10 0 -31 11q-60 45 -118 45q-95 0 -143.5 -55t-48.5 -130v-150h284q17 0 32 -12.5t15 -33.5v-189q0 -18 -12 -33t-35 -15h-283v-231h509q19 0 32 -11.5
t13 -33.5v-268q0 -28 -17.5 -38.5t-27.5 -10.5h-847q-45 0 -45 44v978z" />
    <glyph glyph-name="currency" unicode="&#xa4;" horiz-adv-x="1103" 
d="M551 888q48 0 124 -21l87 87q15 15 37 16q23 1 38 -18l153 -153q19 -21 19 -40q0 -18 -18 -36l-86 -88q22 -83 22 -128t-21 -122l86 -87q27 -30 18.5 -48.5t-19.5 -25.5q-36 -36 -70.5 -71t-57.5 -58t-34.5 -31.5t-31.5 -8.5t-46 26l-76 74q-74 -21 -125 -21t-126 21
l-87 -86q-25 -25 -46 -17.5t-29 19.5q-28 25 -72.5 71t-71.5 72t-27 47q0 22 17 38l33 34q33 34 53 53q-22 86 -22 128t22 121q-13 13 -56.5 53t-44.5 68t17 44l153 153q38 38 75 0l86 -87q79 22 127 22zM446 512q0 -46 30 -75.5t76 -29.5t75.5 29.5t29.5 75.5t-29.5 75.5
t-75.5 29.5t-76 -29.5t-30 -75.5z" />
    <glyph glyph-name="yen" unicode="&#xa5;" horiz-adv-x="1490" 
d="M45 1505q0 16 15 16h395q7 -2 13.5 -3t25.5 -29l249 -530l248 530q14 28 23 29t15 3h394q17 0 17 -16q0 -5 -15 -25l-383 -678h120q18 0 31.5 -11.5t13.5 -33.5v-113q0 -15 -12 -32t-33 -17h-222v-92h222q18 0 31.5 -12t13.5 -33v-113q0 -15 -12 -32.5t-33 -17.5h-222
v-247q0 -48 -47 -48h-307q-43 0 -43 48v247h-209q-45 0 -45 50v113q0 45 45 45h209v92h-209q-45 0 -45 49v113q0 45 45 45h107l-383 678q-5 8 -9 14t-4 11z" />
    <glyph glyph-name="brokenbar" unicode="&#xa6;" horiz-adv-x="612" 
d="M169 412q0 45 45 45h185q18 0 34 -12.5t16 -32.5v-764q0 -45 -50 -45h-185q-45 0 -45 45v764zM169 1478q0 45 45 45h185q18 0 34 -12.5t16 -32.5v-764q0 -45 -50 -45h-185q-45 0 -45 45v764z" />
    <glyph glyph-name="section" unicode="&#xa7;" horiz-adv-x="1114" 
d="M432 823.5q-39 -30.5 -39 -68.5q0 -52 58.5 -76.5t121.5 -30.5h8q107 0 126.5 40.5t19.5 65.5q1 25 -7 38q-8 12 -26.5 23.5t-53.5 25t-102 13.5t-106 -30.5zM144 1187q0 161 125.5 263t308.5 102t318 -101q69 -51 91 -93.5t22 -49.5q0 -34 -34 -60l-74 -50
q-11 -4 -20 -8t-21 -4t-23 2.5t-78 73t-182 70.5q-69 0 -126.5 -36t-57.5 -101q0 -27 19.5 -43t52.5 -28.5t77 -24.5t114 -34q165 -52 244.5 -126t79.5 -202t-109 -213q109 -82 109 -211q0 -159 -124.5 -262t-307.5 -103q-259 0 -346.5 114t-87.5 133q0 36 60 78t83 42
t32 -3t14 -8l42 -42q96 -92 209 -92q64 0 121.5 36.5t57.5 99.5q0 55 -118 91q-35 11 -75 24l-47 12q-188 60 -268.5 132t-80.5 199q0 128 106 211q-106 84 -106 212z" />
    <glyph glyph-name="dieresis" unicode="&#xa8;" horiz-adv-x="963" 
d="M557 1729q0 43 45 43h198q43 0 43 -43v-194q0 -18 -11.5 -34t-31.5 -16h-198q-45 0 -45 50v194zM111 1729q0 43 43 43h200q14 0 28 -11.5t14 -31.5v-194q0 -18 -11.5 -34t-30.5 -16h-200q-43 0 -43 50v194z" />
    <glyph glyph-name="copyright" unicode="&#xa9;" horiz-adv-x="1982" 
d="M1180 920q-8 0 -42 19t-107 19q-119 0 -176 -58.5t-57 -149.5t55 -147t137 -56q81 0 111.5 10.5t54.5 20.5t29.5 7t12.5 -14l107 -174q8 -18 -3.5 -29.5t-49.5 -35.5t-109 -47t-161 -23t-179.5 38.5t-194.5 143.5t-105 311t145.5 350t348.5 144q142 0 277 -79
q44 -29 26 -55l-18 -33q-10 -18 -24 -45.5t-29 -54t-28 -44.5t-21 -18zM979 125q169 0 316 91q233 132 279.5 302t46.5 258t-24.5 170t-89.5 184t-208 180.5t-308 78.5t-319 -90t-240.5 -237.5t-86.5 -316.5t86.5 -311t232.5 -225.5t315 -83.5zM1877 759
q0 -368 -214.5 -582.5t-386.5 -262.5t-296 -48t-237 31.5t-265 120.5t-272 296.5t-120 448.5t120 446.5t328 326t448 120.5q242 0 448 -120.5t326.5 -327.5t120.5 -449z" />
    <glyph glyph-name="ordfeminine" unicode="&#xaa;" horiz-adv-x="1047" 
d="M336 1152q0 -32 11 -58.5t31 -46.5t47 -31.5t58 -11.5q62 0 105.5 43.5t43.5 104.5v7q-4 60 -46 100.5t-88 40.5q-47 0 -73.5 -11t-46.5 -31t-31 -47t-11 -59zM884 1521q29 0 29 -30v-678q0 -15 -7 -22q-12 -6 -22 -7h-163q-32 0 -32 29v56q-69 -99 -216 -99t-257.5 112
t-110.5 269t110.5 269t267.5 112t217 -120l19 79q0 30 32 30h133z" />
    <glyph glyph-name="guillemotleft" unicode="&#xab;" horiz-adv-x="1504" 
d="M1459 260q0 -20 -15 -35l-151 -146q-15 -14 -31 -14t-29 14l-536 537q-15 14 -15 30t15 32l537 535q8 11 30 11t33 -13l148 -147q27 -32 2 -64l-352 -353l352 -354q12 -13 12 -33zM603 65q-17 0 -30 14l-535 537q-15 14 -15 30t15 32l536 535q8 11 30 11t34 -13l147 -147
q29 -34 2 -64l-352 -353l352 -354q13 -13 13 -33t-16 -35l-150 -146q-14 -14 -31 -14z" />
    <glyph glyph-name="logicalnot" unicode="&#xac;" horiz-adv-x="1189" 
d="M99 766q0 45 45 45h899q45 0 46 -45v-494q0 -18 -12 -31.5t-34 -13.5h-157q-15 0 -32.5 12.5t-17.5 32.5v287h-692q-45 0 -45 49v158z" />
    <glyph glyph-name="uni00AD" unicode="&#xad;" horiz-adv-x="1126" 
d="M895 787q18 0 31.5 -11.5t13.5 -33.5v-168q0 -18 -12.5 -32.5t-32.5 -14.5h-665q-48 0 -48 47v168q0 45 48 45h665z" />
    <glyph glyph-name="registered" unicode="&#xae;" horiz-adv-x="1974" 
d="M990 1382q-86 0 -165.5 -22.5t-185 -84t-188.5 -203t-83 -309.5q0 -258 181.5 -441t438.5 -183q129 0 243 49.5t198 134t133.5 197t49.5 219.5t-22.5 187t-63 149t-97.5 125.5t-126 97t-148 62.5t-165 22zM1092.5 965q-22.5 24 -54.5 24h-123v-153h123q34 0 55.5 21.5
t21.5 52.5t-22.5 55zM682 329q-28 0 -28 24v809q0 30 28 30h417q115 -4 195 -86t80 -179q0 -184 -138 -262l146 -309l3 -7q0 -20 -27 -20h-216q-15 0 -23 18l-128 282h-76v-276q0 -24 -27 -24h-206zM1764 1210q121 -206 121 -451q0 -368 -214.5 -582.5t-386.5 -262.5
t-296 -48t-237 31.5t-265 120.5t-272 296.5t-120 448.5t120 446.5t328 326t449 120.5t446.5 -120t326.5 -326z" />
    <glyph glyph-name="macron" unicode="&#xaf;" horiz-adv-x="1039" 
d="M913 1741q36 0 36 -36v-158q0 -12 -9 -26.5t-27 -14.5h-797q-36 0 -36 41v158q0 36 36 36h797z" />
    <glyph glyph-name="degree" unicode="&#xb0;" horiz-adv-x="666" 
d="M426 1238q0 102 -103 103q-29 0 -55.5 -26.5t-26.5 -66.5t26.5 -66t65.5 -26t66 26t27 56zM489 1092.5q-65 -63.5 -156 -63.5t-155 63t-64 156t62.5 157t157 64t157.5 -65t63 -156.5t-65 -155z" />
    <glyph glyph-name="plusminus" unicode="&#xb1;" horiz-adv-x="1017" 
d="M656 400q0 -45 -45 -45h-229q-15 0 -32 12.5t-17 32.5v199h-188q-45 0 -45 49v208q0 45 45 45h188v198q0 45 49 45h229q45 0 45 -45v-198h188q18 0 31.5 -11.5t13.5 -33.5v-208q0 -15 -12.5 -32t-32.5 -17h-188v-199zM849 269q18 0 31.5 -11.5t13.5 -33.5v-176
q0 -17 -12.5 -32.5t-32.5 -15.5h-681q-45 0 -45 48v176q0 45 45 45h681z" />
    <glyph glyph-name="twosuperior" unicode="&#xb2;" horiz-adv-x="856" 
d="M523 1248q0 25 -8 43t-22.5 31t-33.5 21t-51.5 8t-61.5 -31t-29 -72v-46q0 -43 -45 -43h-100q-24 0 -34 14.5t-10 28.5v46q0 122 85.5 202t206.5 80t211 -76t90 -195t-89 -201v1l-213 -214h256q46 0 46 -46v-92q0 -20 -13 -33.5t-33 -13.5h-505q-18 0 -33.5 13t-15.5 34
v83q1 10 3 14l5 10l360 370h-1q35 39 35 64z" />
    <glyph glyph-name="threesuperior" unicode="&#xb3;" horiz-adv-x="775" 
d="M282 952q0 -123 99 -123t99 100q0 52 -25 72.5t-81 20.5t-56 36v106q0 45 46 45q64 1 64 67t-56 66t-55 -75q0 -25 -10 -36t-37 -11h-94q-44 0 -44 44q0 130 68.5 192.5t171.5 62.5t174 -70t71 -161q0 -90 -43 -145q96 -71 96 -204t-81 -215.5t-213 -82.5t-207.5 67
t-75.5 244q0 34 43 44h102q44 0 44 -44z" />
    <glyph glyph-name="acute" unicode="&#xb4;" horiz-adv-x="538" 
d="M110 1424q-27 0 -27 19.5t1 22.5l60 244q9 43 55 43h264q41 0 36.5 -27t-10.5 -38l-100 -221q-22 -43 -55 -43h-224z" />
    <glyph glyph-name="mu" unicode="&#xb5;" horiz-adv-x="1374" 
d="M135 951q0 53 59 53h125q125 0 146 -5t23 -24q10 -8 10 -23v-496q6 -57 65.5 -97.5t103.5 -40.5q75 0 124.5 43t49.5 104v488q0 51 52 51h257q22 0 36.5 -14t14.5 -39v-444q0 -45 -5 -112t-44.5 -146.5t-140.5 -171t-296 -91.5q-71 0 -115.5 29.5t-101.5 82.5v-449
q0 -49 -41.5 -50.5t-54.5 -1.5h-213q-54 0 -54 53v1301z" />
    <glyph glyph-name="paragraph" unicode="&#xb6;" horiz-adv-x="1563" 
d="M1375 1519q53 0 53 -70v-99q0 -63 -22 -67t-34 -4h-143v-1205q0 -37 -6 -69q-38 -5 -68 -5h-103q-29 0 -67 5q-5 27 -5 69v1205h-221v-1205q0 -41 -5 -69q-38 -5 -68 -5h-103q-30 0 -67 5q-5 25 -5 67v615q-177 0 -304.5 120t-127.5 293t121.5 296t293.5 123h881z" />
    <glyph glyph-name="periodcentered" unicode="&#xb7;" horiz-adv-x="611" 
d="M486 521q0 -47 -47 -47h-270q-45 0 -45 47v248q0 45 45 45h270q17 0 33 -12t14 -33v-248z" />
    <glyph glyph-name="cedilla" unicode="&#xb8;" horiz-adv-x="570" 
d="M62 -50q0 29 21 50h270q-23 -16 -23 -34t16 -32t39.5 -29t51 -31.5t66.5 -54t39 -87.5q0 -89 -98 -176.5t-248 -134.5h-6q-26 0 -66.5 71t-40.5 91t11 27q175 44 175 108q0 38 -38 63.5t-65 41.5t-50 34.5t-38.5 41t-15.5 51.5z" />
    <glyph glyph-name="onesuperior" unicode="&#xb9;" horiz-adv-x="480" 
d="M81 1289q-23 0 -23 28v121q0 22 25 36l90 45q5 4 18 4h153q27 0 27 -25v-786q0 -25 -25 -25h-155q-25 0 -24 23v622l-77 -38q-2 -3 -6 -3t-3 -2z" />
    <glyph glyph-name="ordmasculine" unicode="&#xba;" horiz-adv-x="1047" 
d="M361 1130.5q0 -30.5 12 -57.5t32 -47t46.5 -32t57.5 -12t58 12t47 32t31.5 47t11.5 73.5t-43.5 89.5t-89.5 43t-72.5 -12t-46.5 -32t-32 -47t-12 -57.5zM105 1131.5q0 83.5 32 158t87.5 130t129 87.5t157.5 32t158 -32t129.5 -87.5t87.5 -130t32 -158t-32 -157.5
t-87.5 -129t-129.5 -87t-158 -32t-157.5 32t-129 87t-87.5 129t-32 157.5z" />
    <glyph glyph-name="guillemotright" unicode="&#xbb;" horiz-adv-x="1509" 
d="M220 65q-17 0 -32 14l-150 146q-15 15 -15 35t12 33l352 354l-352 353q-9 10 -12 32q2 17 14 32l147 147q12 13 33 13t31 -11l536 -535q31 -31 0 -62l-535 -537q-12 -14 -29 -14zM1459 648q0 -16 -15 -32l-536 -537q-12 -14 -28 -14t-32 14l-151 146q-15 15 -15 35t12 33
l353 354l-353 353q-9 10 -12 32q2 17 14 32l148 147q12 13 33 13t30 -11l537 -535q15 -14 15 -30z" />
    <glyph glyph-name="onequarter" unicode="&#xbc;" horiz-adv-x="1539" 
d="M1233 1521q19 -1 35 -9t16 -21t-2 -15l-781 -1431q-12 -25 -22 -35t-33 -10h-216q-43 0 -43 27l4 18l783 1431q19 43 65 45h194zM119 1289q-23 0 -23 28v121q0 22 25 36l90 45q5 4 18 4h153q27 0 27 -25v-786q0 -25 -25 -25h-155q-25 0 -24 23v622l-77 -38q-2 -3 -6 -3
t-3 -2zM1158 314v176l-100 -176h100zM1348 43q0 -44 -48 -44h-98q-44 0 -44 44v79h-325q-49 0 -52 52q0 15 13 36l369 633q18 28 39 26h104q19 1 30 -15t12 -31v-509h61q50 0 50 -43v-104q0 -17 -15 -31t-35 -14h-61v-79z" />
    <glyph glyph-name="onehalf" unicode="&#xbd;" horiz-adv-x="1649" 
d="M1241 1521q19 -1 35 -9t16 -21t-2 -15l-781 -1431q-12 -25 -22 -35t-32 -10h-216q-43 0 -43 27l4 18l782 1431q19 43 66 45h193zM104 1289q-22 0 -22 28v121q0 22 24 36l91 45q5 4 18 4h153q27 0 26 -25v-786q0 -25 -24 -25h-155q-25 0 -25 23v622l-76 -38q-2 -3 -6 -3
t-4 -2zM1365 586q0 68 -64 95q-19 8 -41 8q-66 0 -93 -63q-8 -18 -8 -39v-46q0 -43 -45 -43h-100q-24 0 -34 14t-10 29v46q0 122 86 202q86 79 208 79t206 -74q93 -78 93 -196t-89 -202v1l-213 -214h256q46 0 46 -46v-92q0 -20 -13 -33t-33 -13h-505q-18 0 -34 13
q-15 13 -15 33v83q0 10 3 15t5 10l360 369h-1q35 38 35 64z" />
    <glyph glyph-name="threequarters" unicode="&#xbe;" horiz-adv-x="1569" 
d="M1327 1521q19 -1 35 -9t16 -21t-2 -15l-781 -1431q-12 -25 -22 -35t-32 -10h-216q-43 0 -43 27l4 18l782 1431q19 43 66 45h193zM1224 298v176l-101 -176h101zM1413 27q0 -46 -47 -44h-98q-44 0 -44 44v78h-326q-51 0 -51 53q0 17 12 36l370 632q17 27 39 27h103
q19 0 31 -16t11 -30v-509h62q48 0 50 -43v-104q1 -17 -15 -31t-35 -15h-62v-78zM337 852q100 0 100 99q0 53 -25 73q-24 20 -80 20t-57 36v107q0 45 48 45q62 0 62 66q1 66 -55 67q-56 0 -56 -76q0 -25 -10 -36t-37 -11h-94q-44 0 -44 44q0 129 67 192t171 63q105 0 177 -72
t71 -160q-1 -89 -44 -144q96 -71 96 -204t-80 -215t-214 -82q-133 0 -199 59q-84 75 -84 252q0 34 43 44h102q44 0 44 -44q0 -100 58 -117q18 -6 40 -6z" />
    <glyph glyph-name="questiondown" unicode="&#xbf;" horiz-adv-x="1148" 
d="M394 1254q0 46 48 48h270q45 0 45 -48v-247q0 -45 -45 -45h-270q-17 0 -33 12q-15 12 -15 33v247zM712 748q47 0 47 -68q1 -127 -9 -153q-37 -103 -228 -234q-79 -56 -100 -104q-22 -47 -22 -88q0 -75 53 -127q53 -51 123 -50q71 1 123 53q51 52 53 123v23q0 40 82 36
q21 -1 37 -1h178q25 0 35 -14t10 -28v-34q0 -210 -153 -349q-153 -138 -365 -138q-211 0 -362 144q-150 144 -150 367q0 224 167 334q110 74 138 110q28 35 28 96q1 61 11 79q10 17 25 20t39 3h240z" />
    <glyph glyph-name="Agrave" unicode="&#xc0;" horiz-adv-x="1567" 
d="M786 1042q-39 -107 -74 -221t-83 -247h314zM655 1521h263q22 0 48 -30l25 -58l538 -1387q8 -20 -3 -33t-39 -13h-294q-43 0 -59 45q-42 113 -76 201h-544q-19 -52 -39 -104q-21 -52 -37 -97t-55 -45h-302q-19 0 -32 10t-5 31l556 1440q3 21 38 36q9 4 17 4zM906 1673
q0 -27 -26 -27h-225q-33 0 -55 43l-100 220q-18 41 3 59q8 6 23 6h265q45 0 54 -43l53 -211q2 -9 5 -22t3 -25z" />
    <glyph glyph-name="Aacute" unicode="&#xc1;" horiz-adv-x="1567" 
d="M786 1042q-39 -107 -74 -221t-83 -247h314zM655 1521h263q22 0 48 -30l25 -58l538 -1387q8 -20 -3 -33t-39 -13h-294q-43 0 -59 45q-42 113 -76 201h-544q-19 -52 -39 -104q-21 -52 -37 -97t-55 -45h-302q-19 0 -32 10t-5 31l556 1440q3 21 38 36q9 4 17 4zM668 1648
q-27 0 -27 27q0 11 3 25l58 233q9 46 55 43h264q41 0 34 -42q-2 -12 -7 -23l-101 -220q-22 -43 -55 -43h-224z" />
    <glyph glyph-name="Acircumflex" unicode="&#xc2;" horiz-adv-x="1567" 
d="M786 1042q-39 -107 -74 -221t-83 -247h314zM655 1521h263q22 0 48 -30l25 -58l538 -1387q8 -20 -3 -33t-39 -13h-294q-43 0 -59 45q-42 113 -76 201h-544q-19 -52 -39 -104q-21 -52 -37 -97t-55 -45h-302q-19 0 -32 10t-5 31l556 1440q3 21 38 36q9 4 17 4zM1075 1751
q0 -13 -9 -24l-90 -92q-11 -11 -26 -11t-24 9l-143 146l-145 -147q-21 -21 -45 3l-92 89q-9 8 -9 22t9 23l260 264q13 9 21 9q9 0 22 -9l263 -263q8 -6 8 -19z" />
    <glyph glyph-name="Atilde" unicode="&#xc3;" horiz-adv-x="1567" 
d="M786 1042q-39 -107 -74 -221t-83 -247h314zM655 1521h263q22 0 48 -30l25 -58l538 -1387q8 -20 -3 -33t-39 -13h-294q-43 0 -59 45q-42 113 -76 201h-544q-19 -52 -39 -104q-21 -52 -37 -97t-55 -45h-302q-19 0 -32 10t-5 31l556 1440q3 21 38 36q9 4 17 4zM654 1965
q72 0 152 -46q32 -17 63 -37t59 -20q27 0 57 30l34 41q19 28 40 5l105 -92q11 -11 15 -19t-7 -22l-30 -40q-42 -56 -102 -88q-141 -75 -287 20l-57 36q-24 15 -54 15t-53 -30l-32 -41q-6 -9 -21 -11t-25 7l-105 89q-13 13 -13 24q-1 11 27 48q96 131 234 131z" />
    <glyph glyph-name="Adieresis" unicode="&#xc4;" horiz-adv-x="1567" 
d="M786 1042q-39 -107 -74 -221t-83 -247h314zM655 1521h263q22 0 48 -30l25 -58l538 -1387q8 -20 -3 -33t-39 -13h-294q-43 0 -59 45q-42 113 -76 201h-544q-19 -52 -39 -104q-21 -52 -37 -97t-55 -45h-302q-19 0 -32 10t-5 31l556 1440q3 21 38 36q9 4 17 4zM872 1929
q0 43 46 43h197q43 0 43 -43v-193q0 -18 -11 -34t-32 -16h-197q-45 0 -46 50v193zM426 1929q0 43 43 43h201q14 0 28 -11t14 -32v-193q0 -18 -12 -34t-30 -16h-201q-43 0 -43 50v193z" />
    <glyph glyph-name="Aring" unicode="&#xc5;" horiz-adv-x="1567" 
d="M786 1042q-39 -107 -74 -221t-83 -247h314zM655 1521h263q22 0 48 -30l25 -58l538 -1387q8 -20 -3 -33t-39 -13h-294q-43 0 -59 45q-42 113 -76 201h-544q-19 -52 -39 -104q-21 -52 -37 -97t-55 -45h-302q-19 0 -32 10t-5 31l556 1440q3 21 38 36q9 4 17 4zM783 1878
q-27 0 -43 -17t-16 -44t16 -43t43 -16t44 16t18 43t-17 44t-45 17zM782 2032q90 0 153 -64q64 -64 64 -153q-1 -89 -64 -152q-63 -61 -154 -61q-90 0 -150 60t-62 151q-1 90 61 155q62 64 152 64z" />
    <glyph glyph-name="AE" unicode="&#xc6;" horiz-adv-x="2232" 
d="M744 574h304l-72 408zM2088 352q46 0 46 -47v-258q0 -20 -14.5 -33.5t-34.5 -13.5h-906q-42 0 -50 38q-18 104 -34 208h-533l-117 -208q-23 -38 -60 -38h-323q-33 0 -32 22q0 6 5 19q243 433 825 1440q25 40 65 40h1123q47 0 47 -50v-253q0 -17 -12 -33.5t-36 -16.5h-724
l48 -258h207q208 0 349 1q45 0 45 -41v-221q0 -14 -11 -27.5t-33 -13.5h-506l47 -256h619z" />
    <glyph glyph-name="Ccedilla" unicode="&#xc7;" horiz-adv-x="1442" 
d="M105 759q0 109 28 209q57 202 200 346t346 201q100 28 216 28q234 0 430 -133q43 -25 23 -65l-173 -246q-21 -33 -56 -12q-104 79 -238 79q-168 0 -277 -118q-110 -118 -109 -287q1 -168 110 -286t260 -118t256 80q33 20 56 -9l175 -252q19 -40 -23 -63
q-147 -99 -319 -126q-8 -11 -8 -25q0 -27 89 -79q124 -72 122 -165q0 -74 -98 -163t-248 -134h-5q-38 0 -96 130q-11 27 -11 39t11 20q175 44 175 108q0 46 -103 106q-104 60 -104 125q0 27 12 41q-235 41 -412 216q-145 145 -201 344q-28 100 -28 209z" />
    <glyph glyph-name="Egrave" unicode="&#xc8;" horiz-adv-x="1382" 
d="M210 0q-45 0 -45 44v1430q0 47 45 47h1017q47 0 47 -50v-253q0 -18 -12 -34t-36 -16h-664v-253h512q45 0 45 -39v-222q0 -14 -11 -27t-33 -14h-513v-261h688q46 0 46 -47v-258q0 -10 -8 -18q-4 -29 -42 -29h-1036zM901 1673q0 -27 -27 -27h-224q-33 0 -55 43l-100 220
q-18 41 3 59q8 6 23 6h264q46 0 55 -43l53 -211q2 -9 5 -22t3 -25z" />
    <glyph glyph-name="Eacute" unicode="&#xc9;" horiz-adv-x="1382" 
d="M210 0q-45 0 -45 44v1430q0 47 45 47h1017q47 0 47 -50v-253q0 -18 -12 -34t-36 -16h-664v-253h512q45 0 45 -39v-222q0 -14 -11 -27t-33 -14h-513v-261h688q46 0 46 -47v-258q0 -10 -8 -18q-4 -29 -42 -29h-1036zM522 1646q-28 0 -26 27q0 11 3 25l58 233q10 46 54 43
h265q56 0 26 -65l-100 -220q-22 -43 -56 -43h-224z" />
    <glyph glyph-name="Ecircumflex" unicode="&#xca;" horiz-adv-x="1382" 
d="M210 0q-45 0 -45 44v1430q0 47 45 47h1017q47 0 47 -50v-253q0 -18 -12 -34t-36 -16h-664v-253h512q45 0 45 -39v-222q0 -14 -11 -27t-33 -14h-513v-261h688q46 0 46 -47v-258q0 -10 -8 -18q-4 -29 -42 -29h-1036zM1033 1740q0 -13 -9 -24l-90 -92q-11 -11 -26 -11t-24 9
l-143 145l-145 -146q-21 -21 -45 3l-92 89q-9 9 -9 23t9 22l260 263q14 10 22 10t21 -10l263 -262q8 -6 8 -19z" />
    <glyph glyph-name="Edieresis" unicode="&#xcb;" horiz-adv-x="1382" 
d="M210 0q-45 0 -45 44v1430q0 47 45 47h1017q47 0 47 -50v-253q0 -18 -12 -34t-36 -16h-664v-253h512q45 0 45 -39v-222q0 -14 -11 -27t-33 -14h-513v-261h688q46 0 46 -47v-258q0 -10 -8 -18q-4 -29 -42 -29h-1036zM839 1923q0 43 45 43h197q43 0 43 -43v-193
q0 -18 -11 -34t-32 -17h-197q-45 0 -45 51v193zM392 1923q0 43 43 43h201q14 0 28 -11t14 -32v-193q0 -18 -12 -34t-30 -17h-201q-43 0 -43 51v193z" />
    <glyph glyph-name="Igrave" unicode="&#xcc;" 
d="M169 1476q0 43 45 45h301q15 -1 33 -13t17 -32v-1431q0 -45 -50 -45h-301q-45 0 -45 45v1431zM501 1673q0 -27 -27 -27h-224q-33 0 -55 43l-101 220q-18 40 4 59q8 6 23 6h264q45 0 54 -43l54 -211q2 -9 5 -22t3 -25z" />
    <glyph glyph-name="Iacute" unicode="&#xcd;" 
d="M169 1476q0 43 45 45h301q15 -1 33 -13t17 -32v-1431q0 -45 -50 -45h-301q-45 0 -45 45v1431zM251 1648q-27 0 -27 27q0 11 3 25l59 233q10 46 54 43h264q41 0 34 -42q-2 -12 -7 -23l-101 -220q-22 -43 -55 -43h-224z" />
    <glyph glyph-name="Icircumflex" unicode="&#xce;" 
d="M169 1476q0 43 45 45h301q15 -1 33 -13t17 -32v-1431q0 -45 -50 -45h-301q-45 0 -45 45v1431zM656 1752q0 -14 -9 -23l-90 -93q-11 -11 -26 -11t-24 9l-142 146l-146 -147q-21 -21 -45 3l-92 89q-9 9 -9 23t9 22l260 264q13 9 22 9t21 -9l263 -262q8 -6 8 -20z" />
    <glyph glyph-name="Idieresis" unicode="&#xcf;" 
d="M169 1476q0 43 45 45h301q15 -1 33 -13t17 -32v-1431q0 -45 -50 -45h-301q-45 0 -45 45v1431zM445 1889q0 43 45 43h198q43 0 43 -43v-193q0 -18 -11 -34t-32 -16h-198q-45 0 -45 50v193zM-1 1889q0 43 43 43h201q14 0 28 -11t14 -32v-193q0 -18 -12 -34t-30 -16h-201
q-43 0 -43 50v193z" />
    <glyph glyph-name="Eth" unicode="&#xd0;" horiz-adv-x="1584" 
d="M156 1474q0 46 47 48h505q319 0 552 -220q144 -138 201 -337q28 -99 28 -207t-28 -206t-79 -182q-105 -174 -283 -272t-391 -98h-505q-47 0 -47 43v564h-60q-39 0 -39 45v187q0 41 39 41h60v594zM552 607v-240h86q145 1 223 37q231 108 234 356q0 167 -118 281
q-118 113 -290 113h-135v-274h152q16 0 28 -11t11 -30v-187q0 -14 -11 -29t-28 -16h-152z" />
    <glyph glyph-name="Ntilde" unicode="&#xd1;" horiz-adv-x="1678" 
d="M1509 40q0 -40 -46 -40h-326q-22 0 -45 34q-41 68 -540 891v-880q0 -23 -10 -34t-37 -11h-291q-45 0 -45 44v1432q0 43 45 45h335q35 0 56 -32q130 -210 258 -414t259 -413v820q8 37 45 39h292q22 0 36 -12t14 -33v-1436zM710 1972q90 0 222 -88q24 -15 51 -15
q28 0 57 31l34 40q19 27 40 6l106 -93q10 -11 14 -19t-6 -22l-31 -39q-41 -57 -101 -89q-135 -73 -288 20l-56 36q-24 15 -54 15t-54 -30l-32 -41q-6 -10 -21 -12t-25 8l-105 89q-13 13 -12 26q1 12 28 48q95 129 233 129z" />
    <glyph glyph-name="Ograve" unicode="&#xd2;" horiz-adv-x="1745" 
d="M94 759q0 109 28 209q57 202 200 346t346 201q100 28 208 28q211 0 396 -107q274 -160 360 -469q28 -101 28 -209q0 -214 -105 -392t-285 -283q-180 -106 -394 -106q-213 0 -392 105q-180 105 -285 285t-105 392zM489 760q0 -172 110 -288q110 -115 278 -116t278 116
t110 286q0 170 -109 290q-113 120 -280 119t-277 -118t-110 -289zM1002 1674q0 -27 -26 -27h-224q-34 0 -56 43l-100 220q-19 42 4 59q8 6 23 6h264q45 0 54 -43l53 -211q2 -9 5 -22t3 -25z" />
    <glyph glyph-name="Oacute" unicode="&#xd3;" horiz-adv-x="1745" 
d="M94 759q0 109 28 209q57 202 200 346t346 201q100 28 208 28q211 0 396 -107q274 -160 360 -469q28 -101 28 -209q0 -214 -105 -392t-285 -283q-180 -106 -394 -106q-213 0 -392 105q-180 105 -285 285t-105 392zM489 760q0 -172 110 -288q110 -115 278 -116t278 116
t110 286q0 170 -109 290q-113 120 -280 119t-277 -118t-110 -289zM773 1647q-27 0 -27 27q0 10 4 24t5 23l53 211q10 46 54 43h264q57 0 27 -65l-100 -220q-22 -43 -56 -43h-224z" />
    <glyph glyph-name="Ocircumflex" unicode="&#xd4;" horiz-adv-x="1745" 
d="M94 759q0 109 28 209q57 202 200 346t346 201q100 28 208 28q211 0 396 -107q274 -160 360 -469q28 -101 28 -209q0 -214 -105 -392t-285 -283q-180 -106 -394 -106q-213 0 -392 105q-180 105 -285 285t-105 392zM489 760q0 -172 110 -288q110 -115 278 -116t278 116
t110 286q0 170 -109 290q-113 120 -280 119t-277 -118t-110 -289zM1056 1625q-14 0 -25 9l-142 146l-146 -147q-21 -21 -45 3l-92 89q-19 19 0 45l260 264q13 9 22 9t21 -9l263 -262q8 -6 8 -20t-9 -23l-90 -93q-11 -11 -25 -11z" />
    <glyph glyph-name="Otilde" unicode="&#xd5;" horiz-adv-x="1745" 
d="M94 759q0 109 28 209q57 202 200 346t346 201q100 28 208 28q211 0 396 -107q274 -160 360 -469q28 -101 28 -209q0 -214 -105 -392t-285 -283q-180 -106 -394 -106q-213 0 -392 105q-180 105 -285 285t-105 392zM489 760q0 -172 110 -288q110 -115 278 -116t278 116
t110 286q0 170 -109 290q-113 120 -280 119t-277 -118t-110 -289zM756 1971q90 0 223 -88q24 -15 52 -15t56 30l34 41q19 27 40 6l106 -93q11 -11 15 -19t-7 -22l-31 -39q-41 -56 -101 -88q-135 -73 -288 19l-56 36q-24 15 -54 15t-54 -30l-32 -41q-6 -9 -21 -11t-25 7
l-105 89q-13 13 -12 26q1 12 28 48q94 129 232 129z" />
    <glyph glyph-name="Odieresis" unicode="&#xd6;" horiz-adv-x="1745" 
d="M94 759q0 109 28 209q57 202 200 346t346 201q100 28 208 28q211 0 396 -107q274 -160 360 -469q28 -101 28 -209q0 -214 -105 -392t-285 -283q-180 -106 -394 -106q-213 0 -392 105q-180 105 -285 285t-105 392zM489 760q0 -172 110 -288q110 -115 278 -116t278 116
t110 286q0 170 -109 290q-113 120 -280 119t-277 -118t-110 -289zM962 1907q0 43 45 43h197q43 0 43 -43v-194q0 -18 -11 -34t-32 -16h-197q-45 0 -45 50v194zM515 1907q0 43 43 43h201q14 0 28 -12t14 -31v-194q0 -18 -12 -34t-30 -16h-201q-43 0 -43 50v194z" />
    <glyph glyph-name="multiply" unicode="&#xd7;" horiz-adv-x="921" 
d="M103 515q-33 32 0 65l134 132l-141 139q-31 33 3 67l162 162q32 31 65 0l139 -140l132 133q31 31 65 0l146 -147q10 -12 13 -32t-10 -35l-132 -132l140 -140q32 -32 0 -65l-163 -162q-11 -11 -31 -14t-35 11l-140 141l-133 -132q-33 -33 -66 3z" />
    <glyph glyph-name="Oslash" unicode="&#xd8;" horiz-adv-x="1745" 
d="M860 1543q92 0 166 -14l33 73q20 45 65 45h284q20 0 36 -8.5t16 -21.5t-2 -15l-101 -224q217 -170 260 -347t43 -279t-28 -201.5t-105.5 -231t-257.5 -237t-392 -105.5q-78 0 -152 16l-36 -81q-11 -26 -21.5 -35.5t-31.5 -9.5h-307q-42 0 -42 27l4 18l104 230
q-214 164 -257.5 343t-43.5 281t28 201.5t79 187t122 159t158 122.5t187 79t192 28zM877 355q167 0 277.5 116.5t110.5 287.5t-109.5 289t-278.5 118t-278.5 -118.5t-109.5 -288.5q0 -171 110.5 -287.5t277.5 -116.5z" />
    <glyph glyph-name="Ugrave" unicode="&#xd9;" horiz-adv-x="1587" 
d="M557 607q0 -140 71 -209t179 -69q109 0 181 74q71 74 71 204v869q0 18 13 31t34 14h299q24 0 37 -14t13 -31v-864q0 -334 -194 -497q-164 -137 -453 -139q-449 0 -596 339q-53 121 -52 297v864q0 17 12 31t29 14h307q15 0 32 -13t17 -32v-869zM993 1673q0 -27 -26 -27
h-225q-33 0 -55 43l-100 220q-18 41 3 59q8 6 23 6h265q45 0 54 -43l53 -211q2 -9 5 -22t3 -25z" />
    <glyph glyph-name="Uacute" unicode="&#xda;" horiz-adv-x="1587" 
d="M557 607q0 -140 71 -209t179 -69q109 0 181 74q71 74 71 204v869q0 18 13 31t34 14h299q24 0 37 -14t13 -31v-864q0 -334 -194 -497q-164 -137 -453 -139q-449 0 -596 339q-53 121 -52 297v864q0 17 12 31t29 14h307q15 0 32 -13t17 -32v-869zM706 1646q-27 0 -27 27
q0 11 3 25l58 233q9 46 55 43h264q41 0 34 -42q-2 -12 -8 -23l-100 -220q-22 -43 -55 -43h-224z" />
    <glyph glyph-name="Ucircumflex" unicode="&#xdb;" horiz-adv-x="1587" 
d="M557 607q0 -140 71 -209t179 -69q109 0 181 74q71 74 71 204v869q0 18 13 31t34 14h299q24 0 37 -14t13 -31v-864q0 -334 -194 -497q-164 -137 -453 -139q-449 0 -596 339q-53 121 -52 297v864q0 17 12 31t29 14h307q15 0 32 -13t17 -32v-869zM1097 1750q0 -13 -10 -24
l-90 -92q-11 -11 -25 -11t-25 9l-142 146l-146 -147q-21 -21 -45 3l-92 89q-19 19 0 45l260 264q13 9 22 9t21 -9l264 -263q8 -6 8 -19z" />
    <glyph glyph-name="Udieresis" unicode="&#xdc;" horiz-adv-x="1587" 
d="M557 607q0 -140 71 -209t179 -69q109 0 181 74q71 74 71 204v869q0 18 13 31t34 14h299q24 0 37 -14t13 -31v-864q0 -334 -194 -497q-164 -137 -453 -139q-449 0 -596 339q-53 121 -52 297v864q0 17 12 31t29 14h307q15 0 32 -13t17 -32v-869zM880 1929q0 43 45 43h197
q43 0 43 -43v-193q0 -18 -11 -34t-32 -16h-197q-45 0 -45 50v193zM433 1929q0 43 43 43h201q14 0 28 -11t14 -32v-193q0 -18 -12 -34t-30 -16h-201q-43 0 -43 50v193z" />
    <glyph glyph-name="Yacute" unicode="&#xdd;" horiz-adv-x="1443" 
d="M25 1507q0 14 15 14h394q7 -2 15 -4t24 -28l250 -530l248 530q14 29 27 29q5 1 11 3h394q7 0 16 -9t-14 -32l-485 -859v-573q0 -48 -48 -48h-307q-41 0 -43 48v575l-484 857q-13 13 -13 27zM597 1648q-27 0 -27 27q0 20 9 47l53 211q10 46 54 43h264q57 0 27 -65
l-100 -220q-22 -43 -56 -43h-224z" />
    <glyph glyph-name="Thorn" unicode="&#xde;" horiz-adv-x="1350" 
d="M936 768q0 85 -56 149.5t-144 64.5h-242v-426q50 1 65 1h164q147 0 180 85t33 126zM150 1476q0 45 45 45h250q17 0 33 -12.5t16 -32.5v-211h298q200 0 336.5 -151t136.5 -344q0 -194 -135 -344t-332 -152h-304v-229q0 -45 -48 -45h-251q-45 0 -45 45v1431z" />
    <glyph glyph-name="germandbls" unicode="&#xdf;" horiz-adv-x="1227" 
d="M563 931q0 44 53 44t65.5 41.5t12.5 58.5v22q0 64 -34 91t-64 27q-120 0 -120 -131v-1128q0 -138 -105.5 -255.5t-307.5 -117.5q-47 0 -47 44v205q0 41 38 41h8q55 0 76.5 32t21.5 90v1091q0 229 121.5 331.5t314.5 107.5h6q174 0 303.5 -116.5t129.5 -288.5v-27
q0 -140 -121 -236q207 -107 223 -301q2 -41 4.5 -76.5t-1.5 -78.5q-22 -412 -530 -412q-45 0 -45 46v240q0 14 12.5 29t32.5 15h63q49 2 83 37.5t34 93.5v69q0 65 -59 105.5t-124 40.5q-45 0 -45 44z" />
    <glyph glyph-name="agrave" unicode="&#xe0;" horiz-adv-x="1606" 
d="M475 648q0 -138 83 -229t216 -91q134 0 227 92t93 226t-93 233q-95 97 -230 97q-67 0 -121 -26q-110 -52 -154 -176q-21 -60 -21 -126zM774 1321q203 0 355 -217l40 124q21 54 33 66t49 12h153q36 0 53 -18q27 -21 27 -58v-1154q0 -43 -27 -59q-17 -17 -53 -17h-202
q-38 0 -52 18t-30 61l-29 77q-81 -81 -127 -112q-98 -68 -190 -68q-277 0 -473 196q-195 198 -195 477q0 143 52 265q108 253 355 355q122 52 261 52zM1013 1452q0 -26 -27 -28h-224q-32 0 -55 43l-101 221q-18 40 4 59q8 6 23 6h264q45 0 54 -43l54 -211q2 -9 5 -22t3 -25z
" />
    <glyph glyph-name="aacute" unicode="&#xe1;" horiz-adv-x="1606" 
d="M475 648q0 -138 83 -229t216 -91q134 0 227 92t93 226t-93 233q-95 97 -230 97q-67 0 -121 -26q-110 -52 -154 -176q-21 -60 -21 -126zM774 1321q203 0 355 -217l40 124q21 54 33 66t49 12h153q36 0 53 -18q27 -21 27 -58v-1154q0 -43 -27 -59q-17 -17 -53 -17h-202
q-38 0 -52 18t-30 61l-29 77q-81 -81 -127 -112q-98 -68 -190 -68q-277 0 -473 196q-195 198 -195 477q0 143 52 265q108 253 355 355q122 52 261 52zM634 1424q-27 0 -27 28q0 10 3 24l59 234q9 43 54 43h264q41 0 34 -42q-2 -12 -7 -23l-101 -221q-22 -41 -55 -43h-224z
" />
    <glyph glyph-name="acircumflex" unicode="&#xe2;" horiz-adv-x="1606" 
d="M475 648q0 -138 83 -229t216 -91q134 0 227 92t93 226t-93 233q-95 97 -230 97q-67 0 -121 -26q-110 -52 -154 -176q-21 -60 -21 -126zM774 1321q203 0 355 -217l40 124q21 54 33 66t49 12h153q36 0 53 -18q27 -21 27 -58v-1154q0 -43 -27 -59q-17 -17 -53 -17h-202
q-38 0 -52 18t-30 61l-29 77q-81 -81 -127 -112q-98 -68 -190 -68q-277 0 -473 196q-195 198 -195 477q0 143 52 265q108 253 355 355q122 52 261 52zM802 1853q9 0 21 -9l263 -262q8 -6 8 -19t-9 -24l-90 -92q-11 -11 -25 -11t-25 9l-142 145l-146 -146q-21 -21 -45 3
l-92 89q-19 19 0 45l260 263q13 9 22 9z" />
    <glyph glyph-name="atilde" unicode="&#xe3;" horiz-adv-x="1606" 
d="M475 648q0 -138 83 -229t216 -91q134 0 227 92t93 226t-93 233q-95 97 -230 97q-67 0 -121 -26q-110 -52 -154 -176q-21 -60 -21 -126zM774 1321q203 0 355 -217l40 124q21 54 33 66t49 12h153q36 0 53 -18q27 -21 27 -58v-1154q0 -43 -27 -59q-17 -17 -53 -17h-202
q-38 0 -52 18t-30 61l-29 77q-81 -81 -127 -112q-98 -68 -190 -68q-277 0 -473 196q-195 198 -195 477q0 143 52 265q108 253 355 355q122 52 261 52zM892 1694q32 -20 59 -20q26 0 57 31l33 41q19 28 40 5l106 -92q11 -11 15 -19t-7 -22l-31 -40q-88 -120 -229 -120
q-76 0 -160 51l-56 36q-62 40 -108 -14l-31 -41q-6 -10 -22 -12t-24 8l-106 89q-13 13 -12 25t28 48q93 128 245 130q72 0 203 -84z" />
    <glyph glyph-name="adieresis" unicode="&#xe4;" horiz-adv-x="1606" 
d="M475 648q0 -138 83 -229t216 -91q134 0 227 92t93 226t-93 233q-95 97 -230 97q-67 0 -121 -26q-110 -52 -154 -176q-21 -60 -21 -126zM774 1321q203 0 355 -217l40 124q21 54 33 66t49 12h153q36 0 53 -18q27 -21 27 -58v-1154q0 -43 -27 -59q-17 -17 -53 -17h-202
q-38 0 -52 18t-30 61l-29 77q-81 -81 -127 -112q-98 -68 -190 -68q-277 0 -473 196q-195 198 -195 477q0 143 52 265q108 253 355 355q122 52 261 52zM884 1729q0 43 45 43h197q43 0 43 -43v-194q0 -18 -11 -34t-32 -16h-197q-45 0 -45 50v194zM437 1729q0 43 43 43h201
q14 0 28 -12t14 -31v-194q0 -18 -12 -34t-30 -16h-201q-43 0 -43 50v194z" />
    <glyph glyph-name="aring" unicode="&#xe5;" horiz-adv-x="1606" 
d="M475 648q0 -138 83 -229t216 -91q134 0 227 92t93 226t-93 233q-95 97 -230 97q-67 0 -121 -26q-110 -52 -154 -176q-21 -60 -21 -126zM774 1321q203 0 355 -217l40 124q21 54 33 66t49 12h153q36 0 53 -18q27 -21 27 -58v-1154q0 -43 -27 -59q-17 -17 -53 -17h-202
q-38 0 -52 18t-30 61l-29 77q-81 -81 -127 -112q-98 -68 -190 -68q-277 0 -473 196q-195 198 -195 477q0 143 52 265q108 253 355 355q122 52 261 52zM772 1699q-27 1 -43 -17t-16 -45t16 -43t43 -16t44 16t18 43q0 27 -18 45t-44 17zM770 1852q90 0 154 -63q63 -63 63 -153
t-63 -150q-63 -61 -153 -63q-90 -1 -152 61t-62 152t61 154q61 62 152 62z" />
    <glyph glyph-name="ae" unicode="&#xe6;" horiz-adv-x="2632" 
d="M475 648q0 -138 83 -229t216 -91q134 0 227 92t93 226t-93 233q-95 97 -230 97q-67 0 -121 -26q-110 -52 -154 -176q-21 -60 -21 -126zM1484 76q0 -43 -27 -59q-17 -17 -53 -17h-202q-38 0 -52 18t-30 61l-29 77q-81 -81 -127 -112q-98 -68 -190 -68q-277 0 -473 196
q-195 198 -195 477q0 143 52 265q108 253 355 355q122 52 261 52q203 0 355 -217l40 124q21 54 33 66t49 12h153q36 0 53 -18q27 -21 27 -58v-68q176 159 421 159q164 0 311 -85q146 -85 233 -226q87 -142 87 -303q0 -53 -2 -87q-3 -68 -63 -82q-33 -8 -97 -8h-738
q18 -118 105 -173t191 -55t210 58q30 17 55 40t48 22q23 0 57 -36l108 -123q18 -21 18 -51t-38 -56q-193 -178 -452 -177t-454 176v-79zM2125 895q-84 114 -212 114t-222 -119q-26 -34 -42 -69h523q-22 40 -47 74z" />
    <glyph glyph-name="ccedilla" unicode="&#xe7;" horiz-adv-x="1286" 
d="M1202 1130q0 -18 -12 -37l-91 -155q-29 -50 -70 -50q-21 0 -59 25q-96 63 -180 63q-217 0 -291 -202q-22 -59 -22 -126q0 -134 82 -227t198 -93t220 72q22 16 53 16t55 -38l115 -173q16 -25 15 -47t-83 -78t-212 -87q-14 -13 -14 -29q0 -29 89 -81q122 -71 122 -156
t-99 -172q-99 -88 -247 -134h-5q-24 0 -64 68q-61 104 -32 121q175 44 175 108q0 47 -104 105q-103 61 -103 128q0 23 10 37q-201 37 -348 184q-193 193 -196 477q0 183 90 338q90 156 243 245t352 89t367 -118l-3 3q49 -28 49 -76z" />
    <glyph glyph-name="egrave" unicode="&#xe8;" horiz-adv-x="1480" 
d="M973 895q-84 114 -212 114t-222 -119q-26 -34 -42 -69h523q-22 40 -47 74zM108 626q0 118 22 202q45 171 161 295t284 173q83 25 173 25q260 0 448 -184t188 -430q0 -53 -2 -87q-3 -68 -63 -82q-33 -8 -97 -8h-738q18 -118 105 -173t191 -55t210 58q30 17 55 40t48 22
q23 0 57 -36l108 -123q18 -21 18 -50t-38 -57q-193 -178 -441 -176q-140 0 -266 51q-255 103 -368 355q-55 122 -55 240zM950 1452q0 -26 -26 -28h-225q-32 0 -55 43l-100 221q-18 41 3 59q8 6 23 6h265q45 0 54 -43l53 -211q2 -9 5 -22t3 -25z" />
    <glyph glyph-name="eacute" unicode="&#xe9;" horiz-adv-x="1480" 
d="M973 895q-84 114 -212 114t-222 -119q-26 -34 -42 -69h523q-22 40 -47 74zM108 626q0 118 22 202q45 171 161 295t284 173q83 25 173 25q260 0 448 -184t188 -430q0 -53 -2 -87q-3 -68 -63 -82q-33 -8 -97 -8h-738q18 -118 105 -173t191 -55t210 58q30 17 55 40t48 22
q23 0 57 -36l108 -123q18 -21 18 -50t-38 -57q-193 -178 -441 -176q-140 0 -266 51q-255 103 -368 355q-55 122 -55 240zM677 1424q-27 0 -27 28q0 10 3 24l59 234q9 43 54 43h264q41 0 34 -42q-2 -12 -7 -23l-101 -221q-22 -41 -55 -43h-224z" />
    <glyph glyph-name="ecircumflex" unicode="&#xea;" horiz-adv-x="1480" 
d="M973 895q-84 114 -212 114t-222 -119q-26 -34 -42 -69h523q-22 40 -47 74zM108 626q0 118 22 202q45 171 161 295t284 173q83 25 173 25q260 0 448 -184t188 -430q0 -53 -2 -87q-3 -68 -63 -82q-33 -8 -97 -8h-738q18 -118 105 -173t191 -55t210 58q30 17 55 40t48 22
q23 0 57 -36l108 -123q18 -21 18 -50t-38 -57q-193 -178 -441 -176q-140 0 -266 51q-255 103 -368 355q-55 122 -55 240zM784 1853q9 0 22 -9l263 -262q8 -6 8 -19t-9 -24l-90 -92q-11 -11 -26 -11t-24 9l-143 145l-145 -146q-21 -21 -45 3l-92 89q-9 8 -9 22t9 23l260 263
q12 9 21 9z" />
    <glyph glyph-name="edieresis" unicode="&#xeb;" horiz-adv-x="1480" 
d="M973 895q-84 114 -212 114t-222 -119q-26 -34 -42 -69h523q-22 40 -47 74zM108 626q0 118 22 202q45 171 161 295t284 173q83 25 173 25q260 0 448 -184t188 -430q0 -53 -2 -87q-3 -68 -63 -82q-33 -8 -97 -8h-738q18 -118 105 -173t191 -55t210 58q30 17 55 40t48 22
q23 0 57 -36l108 -123q18 -21 18 -50t-38 -57q-193 -178 -441 -176q-140 0 -266 51q-255 103 -368 355q-55 122 -55 240zM820 1710q0 43 45 43h198q43 0 43 -43v-193q0 -19 -11 -35t-32 -16h-198q-45 0 -45 51v193zM374 1710q0 43 43 43h200q15 0 29 -11t13 -32v-193
q0 -18 -11 -35q-12 -16 -31 -16h-200q-43 0 -43 51v193z" />
    <glyph glyph-name="igrave" unicode="&#xec;" 
d="M570 79q0 -79 -83 -79h-234q-76 0 -76 79v1142q1 33 19 57t57 22h234q45 0 75 -47q9 -14 8 -32v-1142zM507 1452q0 -26 -27 -28h-224q-32 0 -55 43l-101 221q-18 40 4 59q8 6 23 6h264q45 0 54 -43l54 -211q2 -9 5 -22t3 -25z" />
    <glyph glyph-name="iacute" unicode="&#xed;" 
d="M570 79q0 -79 -83 -79h-234q-76 0 -76 79v1142q1 33 19 57t57 22h234q45 0 75 -47q9 -14 8 -32v-1142zM255 1424q-27 0 -27 28q0 20 9 47l53 211q9 43 54 43h264q57 0 27 -65l-100 -221q-21 -41 -56 -43h-224z" />
    <glyph glyph-name="icircumflex" unicode="&#xee;" 
d="M570 79q0 -79 -83 -79h-234q-76 0 -76 79v1142q1 33 19 57t57 22h234q45 0 75 -47q9 -14 8 -32v-1142zM657 1563q0 -13 -9 -24l-90 -92q-11 -11 -26 -11t-24 9l-142 145l-146 -146q-21 -21 -45 3l-92 89q-9 8 -9 22t9 23l260 263q13 9 22 9t21 -9l263 -262q8 -6 8 -19z
" />
    <glyph glyph-name="idieresis" unicode="&#xef;" 
d="M570 79q0 -79 -83 -79h-234q-76 0 -76 79v1142q1 33 19 57t57 22h234q45 0 75 -47q9 -14 8 -32v-1142zM445 1710q0 43 45 43h198q43 0 43 -43v-193q0 -19 -11 -35t-32 -16h-198q-45 0 -45 51v193zM-1 1710q0 43 43 43h201q14 0 28 -11t14 -32v-193q0 -19 -12 -35t-30 -16
h-201q-43 0 -43 51v193z" />
    <glyph glyph-name="eth" unicode="&#xf0;" horiz-adv-x="1297" 
d="M841 486q0 46 -16.5 87t-45.5 71.5t-68 48t-85 17.5t-85.5 -17.5t-69 -48t-46 -71.5t-16.5 -87t16.5 -86.5t46 -70.5t69 -47t85.5 -17t85 17t68 47t45.5 70.5t16.5 86.5zM631 996q112 0 220 -92q-5 72 -39 161l-51 -41q-28 -20 -50 9l-85 115q-19 25 6 47l42 33
q-76 30 -137.5 3.5t-83.5 -36.5l-1 2q-20 -5 -30 -5q-20 0 -30 29l-83 147q-20 36 -7.5 44t12.5 16q0 21 34 29q66 48 155 58.5t117 10.5q69 0 137.5 -12.5t100.5 -41.5q31 -29 70 -47l105 83q28 28 45 -2l83 -116q23 -23 -2 -51l-100 -78q104 -217 104 -621l-1 -70
q-6 -278 -150.5 -433t-374.5 -155t-382.5 147.5t-152.5 359.5t153.5 359.5t375.5 147.5z" />
    <glyph glyph-name="ntilde" unicode="&#xf1;" horiz-adv-x="1438" 
d="M516 76q0 -76 -79 -76h-231q-83 0 -83 79v1146q0 41 33 61l-6 -3q20 17 56 17h154q59 0 80 -79l32 -131q68 146 226 207q62 24 162 24t194 -45q95 -45 162 -123q141 -164 141 -403v-671q0 -79 -71 -79h-236q-44 0 -61 15q-16 15 -16 58v666q0 87 -72 152q-72 66 -155 66
t-154 -64t-76 -152v-665zM1089 1578q-88 -120 -234 -120q-72 0 -156 51l-56 36q-62 39 -107 -14l-32 -41q-6 -10 -22 -12t-24 8l-106 89q-12 12 -12 18v10q1 3 5 9t10 17l24 33t43 45q162 138 377 -1q49 -32 76 -32q26 0 57 31l34 41q19 28 40 5l105 -92q11 -11 15 -19
t-7 -22z" />
    <glyph glyph-name="ograve" unicode="&#xf2;" horiz-adv-x="1555" 
d="M481 648q0 -138 82 -229t214 -91q133 0 211 91q79 91 79 228q0 136 -78 233q-78 96 -211 96q-69 0 -123 -26q-107 -52 -153 -176q-22 -60 -21 -126zM804 1321q116 0 238 -52q251 -106 357 -355q53 -122 53 -240q0 -306 -196 -502t-475 -196q-183 0 -337 89t-245 243
t-91 340t91 344q196 329 605 329zM916 1452q0 -26 -26 -28h-224q-33 0 -56 43l-100 221q-19 42 4 59q8 6 23 6h264q45 0 54 -43l53 -211q2 -9 5 -22t3 -25z" />
    <glyph glyph-name="oacute" unicode="&#xf3;" horiz-adv-x="1555" 
d="M481 648q0 -138 82 -229t214 -91q133 0 211 91q79 91 79 228q0 136 -78 233q-78 96 -211 96q-69 0 -123 -26q-107 -52 -153 -176q-22 -60 -21 -126zM804 1321q116 0 238 -52q251 -106 357 -355q53 -122 53 -240q0 -306 -196 -502t-475 -196q-183 0 -337 89t-245 243
t-91 340t91 344q196 329 605 329zM670 1424q-27 0 -27 28q0 10 3 24l59 234q9 43 54 43h264q41 0 34 -42q-2 -12 -7 -23l-101 -221q-22 -41 -55 -43h-224z" />
    <glyph glyph-name="ocircumflex" unicode="&#xf4;" horiz-adv-x="1555" 
d="M481 648q0 -138 82 -229t214 -91q133 0 211 91q79 91 79 228q0 136 -78 233q-78 96 -211 96q-69 0 -123 -26q-107 -52 -153 -176q-22 -60 -21 -126zM804 1321q116 0 238 -52q251 -106 357 -355q53 -122 53 -240q0 -306 -196 -502t-475 -196q-183 0 -337 89t-245 243
t-91 340t91 344q196 329 605 329zM776 1808q9 0 22 -9l263 -262q8 -5 8 -19t-9 -24l-90 -92q-11 -11 -26 -11t-24 9l-143 145l-145 -146q-21 -21 -45 3l-92 89q-22 22 0 45l260 263q12 9 21 9z" />
    <glyph glyph-name="otilde" unicode="&#xf5;" horiz-adv-x="1555" 
d="M481 648q0 -138 82 -229t214 -91q133 0 211 91q79 91 79 228q0 136 -78 233q-78 96 -211 96q-69 0 -123 -26q-107 -52 -153 -176q-22 -60 -21 -126zM804 1321q116 0 238 -52q251 -106 357 -355q53 -122 53 -240q0 -306 -196 -502t-475 -196q-183 0 -337 89t-245 243
t-91 340t91 344q196 329 605 329zM684 1519q-24 15 -54 15t-53 -30l-32 -41q-5 -9 -21 -11t-25 7l-106 89q-12 12 -12 18v10q1 3 5 9t10 17q8 12 24 34t43 44q83 71 175 71t226 -88q24 -15 51 -15q28 0 58 30l34 41q19 28 40 5l105 -92q11 -11 15 -19t-7 -22l-31 -40
q-89 -121 -229 -119q-79 0 -160 51z" />
    <glyph glyph-name="odieresis" unicode="&#xf6;" horiz-adv-x="1555" 
d="M481 648q0 -138 82 -229t214 -91q133 0 211 91q79 91 79 228q0 136 -78 233q-78 96 -211 96q-69 0 -123 -26q-107 -52 -153 -176q-22 -60 -21 -126zM804 1321q116 0 238 -52q251 -106 357 -355q53 -122 53 -240q0 -306 -196 -502t-475 -196q-183 0 -337 89t-245 243
t-91 340t91 344q196 329 605 329zM858 1711q0 43 45 43h198q43 0 43 -43v-193q0 -18 -11 -34t-32 -17h-198q-45 0 -45 51v193zM412 1711q0 43 43 43h200q15 0 29 -11t13 -32v-193q0 -18 -11 -35q-12 -16 -31 -16h-200q-43 0 -43 51v193z" />
    <glyph glyph-name="divide" unicode="&#xf7;" horiz-adv-x="970" 
d="M311 297q0 45 45 45h271q17 0 32 -12.5t15 -32.5v-248q0 -18 -12 -32.5t-35 -14.5h-271q-45 0 -45 47v248zM311 1252q0 45 45 45h271q17 0 32 -12t15 -33v-247q0 -18 -12 -33t-35 -15h-271q-45 0 -45 48v247zM823 817q18 0 31.5 -11.5t13.5 -33.5v-240q0 -18 -12 -32.5
t-33 -14.5h-664q-48 0 -48 47v240q0 45 48 45h664z" />
    <glyph glyph-name="oslash" unicode="&#xf8;" horiz-adv-x="1555" 
d="M810 -24q-64 0 -128 8l-24 -53q-11 -26 -21 -35.5t-32 -9.5h-307q-42 0 -42 27l4 18l89 199q-241 202 -241 519q0 282 195 477t478 195q51 0 103 -8l22 49q20 45 66 45h283q53 0 53 -32q0 -11 -2 -13l-91 -199q110 -92 173.5 -224t63.5 -303t-113.5 -366.5t-289 -244.5
t-239.5 -49zM481 648q0 -137 82 -228.5t214 -91.5t211 91t79 229t-79 233t-211 95t-214 -95.5t-82 -232.5z" />
    <glyph glyph-name="ugrave" unicode="&#xf9;" horiz-adv-x="1437" 
d="M1119 0q-48 0 -69 50q-6 14 -11 30l-31 131q-69 -147 -227 -207q-62 -24 -161 -24t-194 45t-162 123q-141 163 -141 403v671q0 80 71 78h236q44 0 60 -14t17 -58v-667q0 -84 72 -151t155 -67t156 66q74 66 74 150v666q0 75 78 75h232q81 0 83 -78v-1146q0 -40 -33 -62
l6 3q-20 -17 -56 -17h-155zM922 1452q0 -26 -27 -28h-224q-33 0 -56 43l-100 221q-19 42 4 59q8 6 23 6h264q45 0 54 -43l53 -211q1 -9 5 -22t4 -25z" />
    <glyph glyph-name="uacute" unicode="&#xfa;" horiz-adv-x="1437" 
d="M1119 0q-48 0 -69 50q-6 14 -11 30l-31 131q-69 -147 -227 -207q-62 -24 -161 -24t-194 45t-162 123q-141 163 -141 403v671q0 80 71 78h236q44 0 60 -14t17 -58v-667q0 -84 72 -151t155 -67t156 66q74 66 74 150v666q0 75 78 75h232q81 0 83 -78v-1146q0 -40 -33 -62
l6 3q-20 -17 -56 -17h-155zM616 1424q-29 0 -26 28q0 10 3 24l58 234q9 43 55 43h264q41 0 34 -42q-2 -12 -8 -23l-100 -221q-22 -41 -55 -43h-225z" />
    <glyph glyph-name="ucircumflex" unicode="&#xfb;" horiz-adv-x="1479" 
d="M1119 0q-48 0 -69 50q-6 14 -11 30l-31 131q-69 -147 -227 -207q-62 -24 -161 -24t-194 45t-162 123q-141 163 -141 403v671q0 80 71 78h236q44 0 60 -14t17 -58v-667q0 -84 72 -151t155 -67t156 66q74 66 74 150v666q0 75 78 75h232q81 0 83 -78v-1146q0 -40 -33 -62
l6 3q-20 -17 -56 -17h-155zM1040 1524q0 -13 -9 -24l-90 -92q-11 -11 -26 -11t-24 9l-142 145l-146 -146q-21 -21 -45 3l-92 89q-9 9 -9 23t9 22l260 263q23 17 43 0l263 -262q8 -6 8 -19z" />
    <glyph glyph-name="udieresis" unicode="&#xfc;" horiz-adv-x="1437" 
d="M1119 0q-48 0 -69 50q-6 14 -11 30l-31 131q-69 -147 -227 -207q-62 -24 -161 -24t-194 45t-162 123q-141 163 -141 403v671q0 80 71 78h236q44 0 60 -14t17 -58v-667q0 -84 72 -151t155 -67t156 66q74 66 74 150v666q0 75 78 75h232q81 0 83 -78v-1146q0 -40 -33 -62
l6 3q-20 -17 -56 -17h-155zM799 1711q0 43 45 43h197q43 0 43 -43v-193q0 -18 -11 -34t-32 -17h-197q-45 0 -45 51v193zM352 1711q0 43 43 43h201q14 0 28 -11t14 -32v-193q0 -18 -12 -34t-30 -17h-201q-43 0 -43 51v193z" />
    <glyph glyph-name="yacute" unicode="&#xfd;" horiz-adv-x="1453" 
d="M442 -513q-80 0 -80 60q0 30 10 40l160 418l-488 1197q-16 41 0 70t70 30h253q47 0 66 -56l290 -824l284 824q11 33 28 44t48 12h264q97 0 64 -89q-289 -712 -360 -892q-70 -180 -115 -293t-82 -208q-38 -94 -66 -166t-42 -111l4 5q-15 -61 -71 -61h-237zM607 1424
q-29 0 -26 28q0 10 3 24l58 234q9 43 54 43h265q56 0 26 -65l-100 -221q-22 -41 -56 -43h-224z" />
    <glyph glyph-name="thorn" unicode="&#xfe;" horiz-adv-x="1583" 
d="M909 504q0 86 -56.5 150t-142.5 64h-243v-426q50 1 63 1h182q83 0 140 62.5t57 148.5zM123 1476q0 45 45 45h251q17 0 32.5 -12.5t15.5 -32.5v-476h298q201 0 337 -150.5t136 -344.5t-135 -343.5t-332 -151.5h-304v-362q0 -45 -47 -45h-252q-45 0 -45 45v1828z" />
    <glyph glyph-name="ydieresis" unicode="&#xff;" horiz-adv-x="1453" 
d="M442 -513q-80 0 -80 60q0 30 10 40l160 418l-488 1197q-16 41 0 70t70 30h253q47 0 66 -56l290 -824l284 824q11 33 28 44t48 12h264q97 0 64 -89q-289 -712 -360 -892q-70 -180 -115 -293t-82 -208q-38 -94 -66 -166t-42 -111l4 5q-15 -61 -71 -61h-237zM807 1711
q0 43 45 43h198q43 0 43 -43v-193q1 -18 -11 -34t-32 -17h-198q-45 0 -45 51v193zM360 1711q0 43 43 43h201q14 0 28 -11t14 -32v-193q0 -18 -12 -34t-30 -17h-201q-43 0 -43 51v193z" />
    <glyph glyph-name="Amacron" unicode="&#x100;" horiz-adv-x="1567" 
d="M786 1042q-39 -107 -74 -221t-83 -247h314zM655 1521h263q22 0 48 -30l25 -58l538 -1387q8 -20 -3 -33t-39 -13h-294q-43 0 -59 45q-42 113 -76 201h-544q-19 -52 -39 -104q-21 -52 -37 -97t-55 -45h-302q-19 0 -32 10t-5 31l556 1440q3 21 38 36q9 4 17 4zM1184 1920
q34 0 36 -36v-158q0 -12 -10 -26t-26 -14h-798q-36 0 -36 40v158q0 36 36 36h798z" />
    <glyph glyph-name="amacron" unicode="&#x101;" horiz-adv-x="1606" 
d="M475 648q0 -138 83 -229t216 -91q134 0 227 92t93 226t-93 233q-95 97 -230 97q-67 0 -121 -26q-110 -52 -154 -176q-21 -60 -21 -126zM774 1321q203 0 355 -217l40 124q21 54 33 66t49 12h153q36 0 53 -18q27 -21 27 -58v-1154q0 -43 -27 -59q-17 -17 -53 -17h-202
q-38 0 -52 18t-30 61l-29 77q-81 -81 -127 -112q-98 -68 -190 -68q-277 0 -473 196q-195 198 -195 477q0 143 52 265q108 253 355 355q122 52 261 52zM1199 1740q36 0 36 -36v-158q0 -12 -9 -26t-27 -15h-798q-36 0 -35 41v158q0 36 35 36h798z" />
    <glyph glyph-name="Abreve" unicode="&#x102;" horiz-adv-x="1567" 
d="M786 1042q-39 -107 -74 -221t-83 -247h314zM655 1521h263q22 0 48 -30l25 -58l538 -1387q8 -20 -3 -33t-39 -13h-294q-43 0 -59 45q-42 113 -76 201h-544q-19 -52 -39 -104q-21 -52 -37 -97t-55 -45h-302q-19 0 -32 10t-5 31l556 1440q3 21 38 36q9 4 17 4zM1029 1944
q39 0 39 -54q0 -34 -22 -80q-44 -93 -152 -139q-53 -21 -113 -21t-111 22t-89 58t-60 82q-21 46 -21 87q0 42 39 45h147q21 0 23 -24q1 -24 19 -42t55 -18t56 19t19 42t22 23h149z" />
    <glyph glyph-name="abreve" unicode="&#x103;" horiz-adv-x="1606" 
d="M475 648q0 -138 83 -229t216 -91q134 0 227 92t93 226t-93 233q-95 97 -230 97q-67 0 -121 -26q-110 -52 -154 -176q-21 -60 -21 -126zM774 1321q203 0 355 -217l40 124q21 54 33 66t49 12h153q36 0 53 -18q27 -21 27 -58v-1154q0 -43 -27 -59q-17 -17 -53 -17h-202
q-38 0 -52 18t-30 61l-29 77q-81 -81 -127 -112q-98 -68 -190 -68q-277 0 -473 196q-195 198 -195 477q0 143 52 265q108 253 355 355q122 52 261 52zM1049 1742q39 0 39 -44q-1 -44 -23 -90q-45 -95 -152 -139q-52 -21 -112 -21q-59 0 -111 22q-104 45 -149 139
q-22 46 -22 79q0 54 39 54h148q23 0 23 -24q1 -24 19 -42t55 -18t56 19t19 42t21 23h150z" />
    <glyph glyph-name="Aogonek" unicode="&#x104;" horiz-adv-x="1567" 
d="M786 1042q-39 -107 -74 -221t-83 -247h314zM655 1521h263q22 0 48 -30l25 -58l538 -1387q8 -20 -3 -33t-39 -13h-25q4 -8 4 -32t-15 -48q-15 -22 -38 -40t-50 -34t-50 -32q-53 -37 -53 -73q0 -65 175 -109q11 -6 11 -27t-28 -68q-28 -48 -46 -71t-34 -22h-5
q-155 48 -251 134t-96 169q0 82 106 149q26 17 66 42t40 49q0 7 -3 13h-2q-43 0 -59 45q-42 113 -76 201h-544q-19 -52 -39 -104q-21 -52 -37 -97t-55 -45h-302q-19 0 -32 10t-5 31l556 1440q3 21 38 36q9 4 17 4z" />
    <glyph glyph-name="aogonek" unicode="&#x105;" horiz-adv-x="1606" 
d="M475 648q0 -138 83 -229t216 -91q134 0 227 92t93 226t-93 233q-95 97 -230 97q-67 0 -121 -26q-110 -52 -154 -176q-21 -60 -21 -126zM774 1321q203 0 355 -217l40 124q21 54 33 66t49 12h153q36 0 53 -18q27 -21 27 -58v-1154q0 -43 -27 -59q-7 -7 -14 -10
q10 -13 10 -41q0 -50 -54 -90q-23 -18 -49 -34t-50 -32q-52 -36 -54 -73q0 -65 175 -109q29 -16 -20 -103t-76 -85h-5q-155 48 -251 134t-96 169q0 82 106 149q72 45 89 60q17 14 17 28t-6 22q-31 5 -47 45q-6 15 -12 32l-29 77q-81 -81 -127 -112q-98 -68 -190 -68
q-277 0 -473 196q-195 198 -195 477q0 143 52 265q108 253 355 355q122 52 261 52z" />
    <glyph glyph-name="Cacute" unicode="&#x106;" horiz-adv-x="1442" 
d="M1119 1087q-104 79 -255 79t-260 -118q-110 -118 -109 -287q1 -168 110 -286t260 -118t256 80q33 20 56 -9l175 -252q19 -40 -23 -63q-198 -134 -441 -136q-322 0 -554 229q-145 145 -201 344q-28 100 -28 209t28 209q57 202 200 346t346 201q100 28 216 28
q234 0 430 -133q43 -25 23 -65l-173 -246q-21 -33 -56 -12zM733 1646q-28 0 -26 27q0 11 3 25l58 233q10 46 54 43h264q57 0 27 -65l-100 -220q-22 -43 -56 -43h-224z" />
    <glyph glyph-name="cacute" unicode="&#x107;" horiz-adv-x="1286" 
d="M1202 1130q0 -18 -12 -37l-91 -155q-29 -50 -70 -50q-21 0 -59 25q-96 63 -180 63q-217 0 -291 -202q-22 -59 -22 -126q0 -134 82 -227t198 -93t220 72q22 16 53 16t55 -38l115 -173q16 -25 15 -47t-67 -66q-64 -45 -164 -80q-100 -36 -202 -36q-285 -1 -480 194
t-198 479q0 183 90 338q90 156 243 245t352 89t367 -118l-3 3q49 -28 49 -76zM694 1424q-29 0 -26 28q0 10 3 24l58 234q9 43 54 43h265q56 0 26 -65l-100 -221q-22 -41 -55 -43h-225z" />
    <glyph glyph-name="Ccircumflex" unicode="&#x108;" horiz-adv-x="1442" 
d="M1119 1087q-104 79 -255 79t-260 -118q-110 -118 -109 -287q1 -168 110 -286t260 -118t256 80q33 20 56 -9l175 -252q19 -40 -23 -63q-198 -134 -441 -136q-322 0 -554 229q-145 145 -201 344q-28 100 -28 209t28 209q57 202 200 346t346 201q100 28 216 28
q234 0 430 -133q43 -25 23 -65l-173 -246q-21 -33 -56 -12zM1169 1742q0 -13 -9 -24l-90 -92q-11 -11 -26 -11t-24 9l-142 145l-146 -146q-21 -21 -45 3l-92 89q-9 9 -9 23t9 22l260 263q15 10 23 10t20 -10l263 -262q8 -6 8 -19z" />
    <glyph glyph-name="ccircumflex" unicode="&#x109;" horiz-adv-x="1286" 
d="M1202 1130q0 -18 -12 -37l-91 -155q-29 -50 -70 -50q-21 0 -59 25q-96 63 -180 63q-217 0 -291 -202q-22 -59 -22 -126q0 -134 82 -227t198 -93t220 72q22 16 53 16t55 -38l115 -173q16 -25 15 -47t-67 -66q-64 -45 -164 -80q-100 -36 -202 -36q-285 -1 -480 194
t-198 479q0 183 90 338q90 156 243 245t352 89t367 -118l-3 3q49 -28 49 -76zM784 1853q9 0 22 -9l263 -262q8 -6 8 -19t-9 -24l-90 -92q-11 -11 -26 -11t-24 9l-143 145l-145 -146q-21 -21 -45 3l-92 89q-9 8 -9 22t9 23l260 263q12 9 21 9z" />
    <glyph glyph-name="Cdotaccent" unicode="&#x10a;" horiz-adv-x="1442" 
d="M1119 1087q-104 79 -255 79t-260 -118q-110 -118 -109 -287q1 -168 110 -286t260 -118t256 80q33 20 56 -9l175 -252q19 -40 -23 -63q-198 -134 -441 -136q-322 0 -554 229q-145 145 -201 344q-28 100 -28 209t28 209q57 202 200 346t346 201q100 28 216 28
q234 0 430 -133q43 -25 23 -65l-173 -246q-21 -33 -56 -12zM749 1925q0 43 43 43h200q14 0 28 -11t14 -32v-193q0 -18 -12 -34t-30 -17h-200q-43 0 -43 51v193z" />
    <glyph glyph-name="cdotaccent" unicode="&#x10b;" horiz-adv-x="1286" 
d="M1202 1130q0 -18 -12 -37l-91 -155q-29 -50 -70 -50q-21 0 -59 25q-96 63 -180 63q-217 0 -291 -202q-22 -59 -22 -126q0 -134 82 -227t198 -93t220 72q22 16 53 16t55 -38l115 -173q16 -25 15 -47t-67 -66q-64 -45 -164 -80q-100 -36 -202 -36q-285 -1 -480 194
t-198 479q0 183 90 338q90 156 243 245t352 89t367 -118l-3 3q49 -28 49 -76zM630 1710q0 43 43 43h200q15 0 29 -11t13 -32v-193q0 -18 -11 -35q-12 -16 -31 -16h-200q-43 0 -43 51v193z" />
    <glyph glyph-name="Ccaron" unicode="&#x10c;" horiz-adv-x="1442" 
d="M1119 1087q-104 79 -255 79t-260 -118q-110 -118 -109 -287q1 -168 110 -286t260 -118t256 80q33 20 56 -9l175 -252q19 -40 -23 -63q-198 -134 -441 -136q-322 0 -554 229q-145 145 -201 344q-28 100 -28 209t28 209q57 202 200 346t346 201q100 28 216 28
q234 0 430 -133q43 -25 23 -65l-173 -246q-21 -33 -56 -12zM881 1606q-9 0 -22 9l-263 262q-8 6 -8 19t9 24l90 92q11 11 26 11t24 -9l143 -145l145 146q21 21 45 -3l92 -89q9 -9 9 -23t-9 -22l-260 -263q-12 -9 -21 -9z" />
    <glyph glyph-name="ccaron" unicode="&#x10d;" horiz-adv-x="1286" 
d="M1202 1130q0 -18 -12 -37l-91 -155q-29 -50 -70 -50q-21 0 -59 25q-96 63 -180 63q-217 0 -291 -202q-22 -59 -22 -126q0 -134 82 -227t198 -93t220 72q22 16 53 16t55 -38l115 -173q16 -25 15 -47t-67 -66q-64 -45 -164 -80q-100 -36 -202 -36q-285 -1 -480 194
t-198 479q0 183 90 338q90 156 243 245t352 89t367 -118l-3 3q49 -28 49 -76zM495 1720q0 12 9 25l90 92q11 11 26 11t24 -9l142 -145l146 146q21 21 45 -3l92 -89q9 -8 9 -22t-9 -23l-260 -263q-13 -9 -22 -9t-21 9l-263 262q-8 6 -8 18z" />
    <glyph glyph-name="Dcaron" unicode="&#x10e;" horiz-adv-x="1584" 
d="M545 1154v-787h86q145 1 223 37q233 108 233 358q0 84 -32 156q-66 149 -217 207q-74 29 -158 29h-135zM148 1474q0 46 48 48h504q213 0 394 -103q274 -155 360 -454q28 -99 28 -207t-28 -206t-79 -182q-105 -174 -283 -272t-392 -98h-504q-46 0 -48 43v1431zM410 1904
q0 13 9 24l90 92q11 12 26 12t24 -10l142 -145l146 146q22 22 45 -3l92 -89q9 -9 9 -23t-9 -22l-260 -263q-13 -9 -22 -9t-21 9l-263 262q-8 6 -8 19z" />
    <glyph glyph-name="dcaron" unicode="&#x10f;" horiz-adv-x="1871" 
d="M475 648q0 -68 21 -126t60 -101t94 -68t121 -25q65 0 123 24q117 48 170 162q26 56 30 121v14q0 131 -93 230q-95 97 -230 97q-67 0 -121 -26q-110 -52 -154 -176q-21 -60 -21 -126zM744 -24q-275 0 -456 196q-182 196 -182 478t180 476t458 195q139 0 259 -116
q32 -32 61 -63v468q0 34 20 56t60 22h230q27 0 55 -22t28 -56v-1531q0 -79 -83 -79h-200q-35 0 -47 15t-18 30t-15 34l-30 80q-88 -88 -131 -117q-95 -66 -189 -66zM1591 1437q-42 0 -42 45v227q0 45 45 45h248q17 0 32 -12t15 -33v-221q-1 -44 -5 -106t-48 -128
q-44 -67 -124 -113q-2 -1 -16 -5l-21 -6t-12 -2t-10 4t-12 11l-38 29q-24 17 -24 33t29 46q60 62 60 119v45q0 18 -18 22h-59z" />
    <glyph glyph-name="Dcroat" unicode="&#x110;" horiz-adv-x="1584" 
d="M156 1474q0 46 47 48h505q319 0 552 -220q144 -138 201 -337q28 -99 28 -207t-28 -206t-79 -182q-105 -174 -283 -272t-391 -98h-505q-47 0 -47 43v564h-60q-39 0 -39 45v187q0 41 39 41h60v594zM552 607v-240h86q145 1 223 37q231 108 234 356q0 167 -118 281
q-118 113 -290 113h-135v-274h152q16 0 28 -11t11 -30v-187q0 -14 -11 -29t-28 -16h-152z" />
    <glyph glyph-name="dcroat" unicode="&#x111;" horiz-adv-x="1606" 
d="M475 648q0 -68 21 -126t60 -101t94 -68t121 -25q65 0 123 24q117 48 170 162q26 56 30 121v14q0 131 -93 230q-95 97 -230 97q-67 0 -121 -26q-110 -52 -154 -176q-21 -60 -21 -126zM744 -24q-275 0 -456 196q-182 196 -182 478t180 476t458 195q26 0 50 -4v144
q0 40 38 40h232v109q0 34 20 56t60 22h230q27 0 55 -22t28 -56v-1531q0 -79 -83 -79h-200q-35 0 -47 15t-18 30t-15 34l-30 80q-88 -88 -131 -117q-95 -66 -189 -66zM1064 1233h-93q43 -38 93 -91v91z" />
    <glyph glyph-name="Emacron" unicode="&#x112;" horiz-adv-x="1382" 
d="M210 0q-45 0 -45 44v1430q0 47 45 47h1017q47 0 47 -50v-253q0 -18 -12 -34t-36 -16h-664v-253h512q45 0 45 -39v-222q0 -14 -11 -27t-33 -14h-513v-261h688q46 0 46 -47v-258q0 -10 -8 -18q-4 -29 -42 -29h-1036zM1107 1921q36 0 36 -36v-158q0 -12 -9 -26t-27 -14h-798
q-36 0 -36 40v158q0 36 36 36h798z" />
    <glyph glyph-name="emacron" unicode="&#x113;" horiz-adv-x="1480" 
d="M973 895q-84 114 -212 114t-222 -119q-26 -34 -42 -69h523q-22 40 -47 74zM108 626q0 118 22 202q45 171 161 295t284 173q83 25 173 25q260 0 448 -184t188 -430q0 -53 -2 -87q-3 -68 -63 -82q-33 -8 -97 -8h-738q18 -118 105 -173t191 -55t210 58q30 17 55 40t48 22
q23 0 57 -36l108 -123q18 -21 18 -50t-38 -57q-193 -178 -441 -176q-140 0 -266 51q-255 103 -368 355q-55 122 -55 240zM1139 1741q34 0 36 -36v-158q1 -12 -9 -26t-27 -15h-798q-36 0 -36 41v158q0 36 36 36h798z" />
    <glyph glyph-name="Ebreve" unicode="&#x114;" horiz-adv-x="1382" 
d="M210 0q-45 0 -45 44v1430q0 47 45 47h1017q47 0 47 -50v-253q0 -18 -12 -34t-36 -16h-664v-253h512q45 0 45 -39v-222q0 -14 -11 -27t-33 -14h-513v-261h688q46 0 46 -47v-258q0 -10 -8 -18q-4 -29 -42 -29h-1036zM977 1958q39 0 39 -44t-22 -90q-45 -95 -152 -138
q-53 -22 -113 -22q-59 0 -111 22q-104 45 -149 139q-22 46 -22 79q0 54 39 54h148q23 0 23 -24q1 -24 19 -42t55 -18t56 19t19 42t21 23h150z" />
    <glyph glyph-name="ebreve" unicode="&#x115;" horiz-adv-x="1480" 
d="M973 895q-84 114 -212 114t-222 -119q-26 -34 -42 -69h523q-22 40 -47 74zM108 626q0 118 22 202q45 171 161 295t284 173q83 25 173 25q260 0 448 -184t188 -430q0 -53 -2 -87q-3 -68 -63 -82q-33 -8 -97 -8h-738q18 -118 105 -173t191 -55t210 58q30 17 55 40t48 22
q23 0 57 -36l108 -123q18 -21 18 -50t-38 -57q-193 -178 -441 -176q-140 0 -266 51q-255 103 -368 355q-55 122 -55 240zM985 1742q39 0 39 -44t-22 -90q-45 -94 -152 -139q-53 -21 -113 -21t-111 22q-103 44 -149 139q-21 46 -21 79q1 54 39 54h147q21 0 23 -24
q1 -24 19 -42t55 -18t56 19t19 42t22 23h149z" />
    <glyph glyph-name="Edotaccent" unicode="&#x116;" horiz-adv-x="1382" 
d="M210 0q-45 0 -45 44v1430q0 47 45 47h1017q47 0 47 -50v-253q0 -18 -12 -34t-36 -16h-664v-253h512q45 0 45 -39v-222q0 -14 -11 -27t-33 -14h-513v-261h688q46 0 46 -47v-258q0 -10 -8 -18q-4 -29 -42 -29h-1036zM567 1930q0 43 43 43h201q14 0 28 -11t14 -32v-193
q0 -19 -12 -35t-30 -15h-201q-43 0 -43 50v193z" />
    <glyph glyph-name="edotaccent" unicode="&#x117;" horiz-adv-x="1480" 
d="M973 895q-84 114 -212 114t-222 -119q-26 -34 -42 -69h523q-22 40 -47 74zM108 626q0 118 22 202q45 171 161 295t284 173q83 25 173 25q260 0 448 -184t188 -430q0 -53 -2 -87q-3 -68 -63 -82q-33 -8 -97 -8h-738q18 -118 105 -173t191 -55t210 58q30 17 55 40t48 22
q23 0 57 -36l108 -123q18 -21 18 -50t-38 -57q-193 -178 -441 -176q-140 0 -266 51q-255 103 -368 355q-55 122 -55 240zM629 1709q0 43 43 43h200q14 0 28 -11t14 -32v-193q0 -18 -11 -35q-12 -16 -31 -16h-200q-43 0 -43 51v193z" />
    <glyph glyph-name="Eogonek" unicode="&#x118;" horiz-adv-x="1382" 
d="M210 0q-45 0 -45 44v1430q0 47 45 47h1017q47 0 47 -50v-253q0 -18 -12 -34t-36 -16h-664v-253h512q45 0 45 -39v-222q0 -14 -11 -27t-33 -14h-513v-261h688q46 0 46 -47v-258q0 -10 -8 -18q-4 -29 -42 -29h-320q10 -14 10 -40q0 -61 -104 -124q-63 -38 -83 -60t-20 -45
q0 -65 175 -109q11 -6 11 -18t-19 -60q-19 -47 -45 -79q-27 -32 -43 -31h-5q-154 47 -250 133q-97 86 -97 169t106 150q72 45 89 60q17 14 17 28t-9 26h-449z" />
    <glyph glyph-name="eogonek" unicode="&#x119;" horiz-adv-x="1480" 
d="M973 895q-84 114 -212 114t-222 -119q-26 -34 -42 -69h523q-22 40 -47 74zM940 -52q0 -50 -54 -90q-23 -18 -70 -48t-65 -49q-17 -20 -18 -43q0 -65 175 -108q21 -12 5 -49q-60 -140 -101 -140h-5q-157 48 -252 135t-95 155q0 69 55 124q28 25 76 55q49 30 65 44t16 30
t-14 29q-202 40 -346 180q-204 197 -204 476q0 278 182 473q117 126 285 174q83 25 173 25q260 0 448 -184t188 -430q0 -53 -2 -87q-3 -68 -63 -82q-33 -8 -97 -8h-738q18 -118 105 -173t191 -55t210 58q30 17 55 40t48 22q23 0 57 -36l108 -123q18 -21 18 -50t-38 -57
q-140 -129 -312 -163q14 -18 14 -45z" />
    <glyph glyph-name="Ecaron" unicode="&#x11a;" horiz-adv-x="1382" 
d="M210 0q-45 0 -45 44v1430q0 47 45 47h1017q47 0 47 -50v-253q0 -18 -12 -34t-36 -16h-664v-253h512q45 0 45 -39v-222q0 -14 -11 -27t-33 -14h-513v-261h688q46 0 46 -47v-258q0 -10 -8 -18q-4 -29 -42 -29h-1036zM693 1614q-9 0 -21 9l-263 262q-9 6 -9 19t10 24l90 92
q26 26 50 2l142 -145l146 146q22 22 45 -3l92 -89q9 -9 9 -23t-9 -22l-260 -263q-13 -9 -22 -9z" />
    <glyph glyph-name="ecaron" unicode="&#x11b;" horiz-adv-x="1480" 
d="M973 895q-84 114 -212 114t-222 -119q-26 -34 -42 -69h523q-22 40 -47 74zM108 626q0 118 22 202q45 171 161 295t284 173q83 25 173 25q260 0 448 -184t188 -430q0 -53 -2 -87q-3 -68 -63 -82q-33 -8 -97 -8h-738q18 -118 105 -173t191 -55t210 58q30 17 55 40t48 22
q23 0 57 -36l108 -123q18 -21 18 -50t-38 -57q-193 -178 -441 -176q-140 0 -266 51q-255 103 -368 355q-55 122 -55 240zM755 1400q-9 0 -22 9l-263 262q-8 6 -8 19t9 24l90 92q11 12 26 12t24 -10l143 -145l145 146q22 22 45 -3l92 -89q22 -22 0 -45l-260 -263
q-12 -9 -21 -9z" />
    <glyph glyph-name="Gcircumflex" unicode="&#x11c;" horiz-adv-x="1538" 
d="M1032 644q0 45 45 45h279q14 0 32 -12t18 -33v-496q0 -28 -30 -45q-183 -126 -507 -126q-85 0 -185 28q-198 56 -344 201t-202 344q-28 100 -27 209q0 213 105 395t282 282q183 107 409 107q227 0 423 -133q46 -27 23 -65l-166 -240q-13 -15 -27 -21t-36 8
q-108 77 -238 77q-169 0 -278 -119t-108 -289q1 -171 110 -287q109 -117 276 -117q62 0 146 19v268zM1166 1749q0 -13 -9 -24l-90 -92q-11 -11 -26 -11t-24 9l-143 146l-145 -147q-21 -21 -45 3l-92 89q-9 8 -9 22t9 23l260 264q13 9 21 9q9 0 22 -9l263 -263q8 -6 8 -19z
" />
    <glyph glyph-name="gcircumflex" unicode="&#x11d;" horiz-adv-x="1573" 
d="M479 652q0 -138 83 -230t216 -91q132 1 223 89t97 215v34q-6 127 -100 218t-223 91q-67 0 -121 -26q-111 -54 -154 -174q-21 -58 -21 -126zM753 1323q154 0 282 -139q34 -38 65 -76l39 122q6 17 14 40q12 34 65 36h152q36 0 52 -18q29 -23 29 -58v-1043q0 -311 -191 -491
t-485 -180q-194 0 -367 88q-59 30 -95 61q-72 62 -26 129l97 134q26 29 50 31t60 -25q69 -67 205 -77t240 47q104 56 126 141q11 35 11 79t-1 91q-31 -32 -61 -67q-73 -83 -136 -109q-63 -25 -125 -26q-279 0 -460 178q-182 178 -182 462q0 283 183 477q182 193 459 193z
M785 1853q9 0 22 -9l263 -262q8 -6 8 -19t-9 -24l-90 -92q-11 -11 -26 -11t-24 9l-143 145l-145 -146q-21 -21 -45 3l-92 89q-9 8 -9 22t9 23l260 263q12 9 21 9z" />
    <glyph glyph-name="Gbreve" unicode="&#x11e;" horiz-adv-x="1538" 
d="M1032 644q0 45 45 45h279q14 0 32 -12t18 -33v-496q0 -28 -30 -45q-183 -126 -507 -126q-85 0 -185 28q-198 56 -344 201t-202 344q-28 100 -27 209q0 213 105 395t282 282q183 107 409 107q227 0 423 -133q46 -27 23 -65l-166 -240q-13 -15 -27 -21t-36 8
q-108 77 -238 77q-169 0 -278 -119t-108 -289q1 -171 110 -287q109 -117 276 -117q62 0 146 19v268zM1144 1966q39 0 39 -44t-22 -90q-44 -92 -152 -138q-53 -22 -113 -22t-112 22q-104 45 -148 139q-22 46 -22 79q0 54 39 54h148q23 0 23 -23t18 -42t56 -19q37 0 56 20
t19 42t21 22h150z" />
    <glyph glyph-name="gbreve" unicode="&#x11f;" horiz-adv-x="1573" 
d="M479 652q0 -138 83 -230t216 -91q132 1 223 89t97 215v34q-6 127 -100 218t-223 91q-67 0 -121 -26q-111 -54 -154 -174q-21 -58 -21 -126zM753 1323q154 0 282 -139q34 -38 65 -76l39 122q6 17 14 40q12 34 65 36h152q36 0 52 -18q29 -23 29 -58v-1043q0 -311 -191 -491
t-485 -180q-194 0 -367 88q-59 30 -95 61q-72 62 -26 129l97 134q26 29 50 31t60 -25q69 -67 205 -77t240 47q104 56 126 141q11 35 11 79t-1 91q-31 -32 -61 -67q-73 -83 -136 -109q-63 -25 -125 -26q-279 0 -460 178q-182 178 -182 462q0 283 183 477q182 193 459 193z
M1032 1742q39 0 39 -44t-22 -90q-45 -94 -152 -139q-53 -21 -113 -21t-111 22q-103 44 -149 139q-22 46 -22 79q1 54 40 54h147q24 0 24 -24t18 -42t55 -18t56 19t19 42t22 23h149z" />
    <glyph glyph-name="Gdotaccent" unicode="&#x120;" horiz-adv-x="1538" 
d="M1032 644q0 45 45 45h279q14 0 32 -12t18 -33v-496q0 -28 -30 -45q-183 -126 -507 -126q-85 0 -185 28q-198 56 -344 201t-202 344q-28 100 -27 209q0 213 105 395t282 282q183 107 409 107q227 0 423 -133q46 -27 23 -65l-166 -240q-13 -15 -27 -21t-36 8
q-108 77 -238 77q-169 0 -278 -119t-108 -289q1 -171 110 -287q109 -117 276 -117q62 0 146 19v268zM732 1931q0 43 43 43h201q14 0 28 -11t14 -32v-193q0 -18 -12 -34t-30 -16h-201q-43 0 -43 50v193z" />
    <glyph glyph-name="gdotaccent" unicode="&#x121;" horiz-adv-x="1573" 
d="M479 652q0 -138 83 -230t216 -91q132 1 223 89t97 215v34q-6 127 -100 218t-223 91q-67 0 -121 -26q-111 -54 -154 -174q-21 -58 -21 -126zM753 1323q154 0 282 -139q34 -38 65 -76l39 122q6 17 14 40q12 34 65 36h152q36 0 52 -18q29 -23 29 -58v-1043q0 -311 -191 -491
t-485 -180q-194 0 -367 88q-59 30 -95 61q-72 62 -26 129l97 134q26 29 50 31t60 -25q69 -67 205 -77t240 47q104 56 126 141q11 35 11 79t-1 91q-31 -32 -61 -67q-73 -83 -136 -109q-63 -25 -125 -26q-279 0 -460 178q-182 178 -182 462q0 283 183 477q182 193 459 193z
M616 1709q0 43 43 43h201q14 0 28 -11t14 -32v-193q0 -18 -12 -34t-30 -17h-201q-43 0 -43 51v193z" />
    <glyph glyph-name="Gcommaaccent" unicode="&#x122;" horiz-adv-x="1538" 
d="M1032 644q0 45 45 45h279q14 0 32 -12t18 -33v-496q0 -28 -30 -45q-183 -126 -507 -126q-85 0 -185 28q-198 56 -344 201t-202 344q-28 100 -27 209q0 213 105 395t282 282q183 107 409 107q227 0 423 -133q46 -27 23 -65l-166 -240q-13 -15 -27 -21t-36 8
q-108 77 -238 77q-169 0 -278 -119t-108 -289q1 -171 110 -287q109 -117 276 -117q62 0 146 19v268zM725 -259q0 17 11 29t30 11h242q15 0 29 -11t14 -29v-263q0 -87 -45 -163t-128 -125q-1 -1 -16 -1t-31 11l-62 54q-33 28 -5 54q12 12 40 38q28 27 27 71v40q0 15 -16 20
h-52q-38 1 -38 40v224z" />
    <glyph glyph-name="gcommaaccent" unicode="&#x123;" horiz-adv-x="1573" 
d="M479 652q0 -138 83 -230t216 -91q132 1 223 89t97 215v34q-6 127 -100 218t-223 91q-67 0 -121 -26q-111 -54 -154 -174q-21 -58 -21 -126zM753 1323q154 0 282 -139q34 -38 65 -76l39 122q6 17 14 40q12 34 65 36h152q36 0 52 -18q29 -23 29 -58v-1043q0 -311 -191 -491
t-485 -180q-194 0 -367 88q-59 30 -95 61q-72 62 -26 129l97 134q26 29 50 31t60 -25q69 -67 205 -77t240 47q104 56 126 141q11 35 11 79t-1 91q-31 -32 -61 -67q-73 -83 -136 -109q-63 -25 -125 -26q-279 0 -460 178q-182 178 -182 462q0 283 183 477q182 193 459 193z
M884 1850q42 0 42 -45v-227q0 -45 -45 -45h-248q-17 0 -32 12t-15 33v221q0 43 4 105t49 129q44 67 124 113q1 1 15 5t22 6q7 2 12 2q5 -1 10 -5t12 -10l38 -29q24 -17 24 -33t-29 -46q-60 -62 -60 -119v-45q0 -18 18 -22h59z" />
    <glyph glyph-name="Hcircumflex" unicode="&#x124;" horiz-adv-x="1640" 
d="M565 45q0 -45 -51 -45h-301q-43 0 -44 40v1436q1 17 13 31t31 14h304q15 0 31 -13t17 -32v-486h509v486q0 18 13 31t33 14h300q51 0 51 -43v-1433q0 -45 -48 -45h-303q-46 0 -46 45v582h-509v-582zM821 2043q9 0 22 -9l263 -262q8 -6 8 -20t-9 -23l-90 -93
q-11 -11 -26 -11t-24 9l-143 146l-145 -147q-21 -21 -45 3l-92 89q-7 7 -9 21q-1 14 9 24l260 264q12 9 21 9z" />
    <glyph glyph-name="hcircumflex" unicode="&#x125;" horiz-adv-x="1438" 
d="M516 76q0 -76 -79 -76h-231q-83 0 -83 79v1531q0 78 83 78h231q23 0 51 -17t28 -59v-448q69 106 197 143q49 14 137 14t180 -45q182 -89 253 -305q33 -104 33 -221v-671q0 -79 -71 -79h-236q-44 0 -61 15q-16 15 -16 58v677q0 85 -63 148q-63 61 -144 60q-80 -1 -142 -60
t-67 -146v-676zM1211 1563q0 -13 -9 -24l-90 -92q-11 -11 -26 -11t-24 9l-142 145l-146 -146q-21 -21 -45 3l-92 89q-9 8 -9 22t9 23l260 263q13 9 22 9t21 -9l263 -262q8 -6 8 -19z" />
    <glyph glyph-name="Hbar" unicode="&#x126;" horiz-adv-x="1640" 
d="M1074 857v133h-509v-133h509zM565 45q0 -45 -51 -45h-301q-43 0 -44 40v1436q1 17 13 31t31 14h304q15 0 31.5 -13t16.5 -32v-212h509v212q0 18 13 31.5t33 13.5h300q51 0 51 -43v-1433q0 -45 -48 -45h-303q-46 0 -46 45v510h-509v-510z" />
    <glyph glyph-name="hbar" unicode="&#x127;" horiz-adv-x="1438" 
d="M516 76q0 -76 -79 -76h-231q-83 0 -83 79v1531q0 78 83 78h231q23 0 51 -17t28 -59v-448q69 106 197 143q49 14 137 14t180 -45q182 -89 253 -305q33 -104 33 -221v-671q0 -79 -71 -79h-236q-44 0 -61 15q-16 15 -16 58v677q0 85 -63 148q-63 61 -144 60q-80 -1 -142 -60
t-67 -146v-676zM1118 2082q36 0 36 -36v-158q0 -12 -9 -26t-27 -15h-797q-36 0 -36 41v158q0 36 36 36h797z" />
    <glyph glyph-name="Itilde" unicode="&#x128;" 
d="M169 1476q0 43 45 45h301q15 -1 33 -13t17 -32v-1431q0 -45 -50 -45h-301q-45 0 -45 45v1431zM232 1966q90 0 222 -88q24 -15 52 -15t56 30l34 41q19 28 40 5l105 -92q11 -11 15 -19t-6 -22l-31 -40q-41 -56 -101 -88q-139 -74 -288 20l-57 36q-23 15 -53 15t-54 -30
l-32 -41q-6 -10 -21 -12t-25 8l-105 89q-13 13 -13 24t36 58q58 86 168 113q32 8 58 8z" />
    <glyph glyph-name="itilde" unicode="&#x129;" 
d="M570 79q0 -79 -83 -79h-234q-76 0 -76 79v1142q1 33 19 57t57 22h234q45 0 75 -47q9 -14 8 -32v-1142zM446 1694q32 -20 59 -20t56 31l34 41q19 28 40 5l105 -92q11 -11 15 -19t-6 -22l-31 -40q-42 -56 -102 -88t-131 -32t-156 51l-57 36q-62 39 -107 -14l-32 -41
q-6 -10 -21 -12t-25 8l-105 89q-13 13 -13 24q-1 11 27 48q94 129 247 131q72 0 203 -84z" />
    <glyph glyph-name="Imacron" unicode="&#x12a;" 
d="M169 1476q0 43 45 45h301q15 -1 33 -13t17 -32v-1431q0 -45 -50 -45h-301q-45 0 -45 45v1431zM762 1920q34 0 36 -36v-158q0 -12 -10 -26t-26 -14h-798q-36 0 -36 40v158q0 36 36 36h798z" />
    <glyph glyph-name="imacron" unicode="&#x12b;" 
d="M570 79q0 -79 -83 -79h-234q-76 0 -76 79v1142q1 33 19 57t57 22h234q45 0 75 -47q9 -14 8 -32v-1142zM764 1741q36 0 36 -36v-158q0 -12 -9 -26t-27 -15h-798q-36 0 -36 41v158q0 36 36 36h798z" />
    <glyph glyph-name="Ibreve" unicode="&#x12c;" 
d="M169 1476q0 43 45 45h301q15 -1 33 -13t17 -32v-1431q0 -45 -50 -45h-301q-45 0 -45 45v1431zM606 1942q39 0 39 -54q0 -34 -22 -80q-44 -93 -152 -139q-53 -21 -113 -21q-114 0 -199 79q-84 79 -82 177q0 17 12 27t27 11h147q24 0 24 -24t18 -42t55 -18t56 19t19 42
t22 23h149z" />
    <glyph glyph-name="ibreve" unicode="&#x12d;" 
d="M570 79q0 -79 -83 -79h-234q-76 0 -76 79v1142q1 33 19 57t57 22h234q45 0 75 -47q9 -14 8 -32v-1142zM610 1742q39 0 39 -44t-22 -90q-45 -94 -152 -139q-53 -21 -113 -21t-111 22q-103 44 -149 139q-22 46 -22 79q1 54 40 54h147q24 0 24 -24t18 -42q17 -18 55 -18
t56 19t19 42q0 23 22 23h149z" />
    <glyph glyph-name="Iogonek" unicode="&#x12e;" 
d="M523 -44q0 -28 -15 -50t-38 -41q-23 -18 -50 -34t-50 -32q-52 -36 -54 -73q0 -65 176 -109q11 -6 11 -27t-41 -92t-67 -69h-5q-159 49 -253 135t-94 168t106 149q27 17 51 31t40 29q16 14 15 30q0 16 -14 29h-27q-45 0 -45 45v1431q0 43 45 45h301q15 -1 33 -13t17 -32
v-1431q0 -45 -50 -45h-6q14 -16 14 -44z" />
    <glyph glyph-name="iogonek" unicode="&#x12f;" 
d="M481 1818q80 0 80 -79v-200q0 -48 -46 -76q-15 -9 -34 -9h-237q-76 0 -76 85v200q0 43 18 61t58 18h237zM500 -42q0 -26 -16 -48q-26 -37 -87 -73q-62 -37 -83 -60t-21 -46q0 -65 175 -109q11 -6 11 -27q1 -21 -27 -69t-46 -70t-34 -22h-5q-154 47 -250 133t-97 168
t105 151q27 17 51 32q56 35 55 58q0 14 -10 26q-53 11 -53 77v1142q0 33 18 57t58 22h234q44 0 74 -47q9 -14 9 -32v-1142q0 -72 -72 -79q11 -17 11 -42z" />
    <glyph glyph-name="Idotaccent" unicode="&#x130;" 
d="M169 1476q0 43 45 45h301q15 -1 33 -13t17 -32v-1431q0 -45 -50 -45h-301q-45 0 -45 45v1431zM184 1939q0 44 45 46h271q17 -1 32 -13t15 -33v-247q0 -18 -12 -32t-35 -15h-271q-45 0 -45 47v247z" />
    <glyph glyph-name="dotlessi" unicode="&#x131;" 
d="M570 79q0 -79 -83 -79h-234q-76 0 -76 79v1142q0 33 18.5 56t57.5 23h234q47 0 65 -30.5t18 -48.5v-1142z" />
    <glyph glyph-name="IJ" unicode="&#x132;" horiz-adv-x="1462" 
d="M169 1476q0 45 45 45h301q15 0 32.5 -12.5t17.5 -32.5v-1431q0 -45 -50 -45h-301q-45 0 -45 45v1431zM895 1480q0 38 40 41h302q55 0 55 -54v-1484q0 -201 -148.5 -344t-342.5 -143t-284.5 78t-124.5 128q-3 1 -3 22t17 33l178 167q33 29 55.5 11.5t52 -42.5t66.5 -25
q63 0 100 34.5t37 80.5v1497z" />
    <glyph glyph-name="ij" unicode="&#x133;" horiz-adv-x="1226" 
d="M505 1818q80 0 80 -79v-200q0 -25 -23 -55t-57 -30h-238q-76 0 -76 85v200q0 79 76 79h238zM585 79q0 -79 -83 -79h-235q-76 0 -76 79v1142q1 33 19 57t57 22h235q44 0 74 -47q9 -14 9 -32v-1142zM1098 1818q80 0 80 -79v-200q0 -25 -23 -55t-57 -30h-238q-76 0 -76 85
v200q0 79 76 79h238zM790 1221q0 40 25 60q26 20 56 19h233q37 0 57 -24t21 -55v-1176q0 -189 -147 -324q-147 -136 -339 -136h-24q-37 2 -57 23q-19 21 -19 51v146q0 37 23 60t56 22h21q37 0 66 57q28 57 28 101v1176z" />
    <glyph glyph-name="Jcircumflex" unicode="&#x134;" horiz-adv-x="924" 
d="M358 1480q0 38 40 41h302q55 0 56 -54v-1402q0 -202 -149 -344q-149 -143 -343 -143t-330 117q-45 38 -78 89q-3 1 -3 22t16 33l178 167q19 17 35 17q15 1 29 -11t44 -37t81 -25t85 34q37 33 37 81v1415zM827 1746q0 -13 -9 -24l-90 -92q-11 -11 -26 -11t-24 9l-142 146
l-146 -147q-21 -21 -45 3l-92 89q-9 9 -9 23t9 22l260 264q13 9 22 9t21 -9l263 -263q8 -6 8 -19z" />
    <glyph glyph-name="jcircumflex" unicode="&#x135;" horiz-adv-x="643" 
d="M613 1563q0 -13 -9 -24l-90 -92q-11 -11 -26 -11t-24 9l-142 145l-146 -146q-21 -21 -45 3l-92 89q-7 7 -8 21t8 24l260 263q13 9 22 9t21 -9l263 -262q8 -6 8 -19zM128 1221q0 40 25.5 59.5t56.5 19.5h232q37 0 57.5 -23.5t20.5 -55.5v-1176q0 -189 -146.5 -324.5
t-338.5 -135.5h-25q-37 2 -56.5 23t-19.5 51v146q0 37 23.5 59.5t55.5 22.5h22q38 0 65.5 54t27.5 104v1176z" />
    <glyph glyph-name="Kcommaaccent" unicode="&#x136;" horiz-adv-x="1541" 
d="M163 1476q0 18 12 31t33 14h303q15 -1 32 -13t17 -32v-558q219 280 437 565q25 39 65 39h389q25 0 25 -13t-12 -27l-482 -636l534 -803q11 -17 11 -30t-23 -13h-387q-39 0 -62 38q-98 134 -206 307q-108 174 -159 249l-130 -150v-399q0 -45 -49 -45h-302q-46 0 -46 45
v1431zM581 -259q0 40 41 40h241q15 0 29 -11t14 -29v-263q0 -87 -44 -163t-129 -125q-1 -1 -17 -1t-29 11l-62 54q-18 14 -18 28t26 38q54 50 54 97v40q0 15 -16 20h-53q-38 1 -37 40v224z" />
    <glyph glyph-name="kcommaaccent" unicode="&#x137;" horiz-adv-x="1446" 
d="M447 1687q66 0 66 -68v-758l369 410q27 30 63 29h315q56 0 56 -44q0 -16 -19 -38l-420 -445l529 -680h-2q26 -26 25 -51q-1 -26 -13 -34t-39 -8h-346q-31 0 -66 53l-335 474l-114 -117v-331q0 -46 -34 -70q-13 -9 -35 -9h-257q-44 0 -64 55q-4 11 -3 13v1541q0 42 14 60
t66 18h244zM505 -236q0 44 45 46h270q16 0 32 -12t16 -34v-293q0 -96 -50 -182t-143 -138q-3 -3 -22 -3t-29 14l-71 59q-38 27 1 64q38 37 54 62t16 56v45q0 19 -19 22h-58q-42 2 -42 45v249z" />
    <glyph glyph-name="kgreenlandic" unicode="&#x138;" horiz-adv-x="1446" 
d="M1428 43q0 -26 -12.5 -34.5t-38.5 -8.5h-346q-29 0 -66 53l-335 474l-114 -117v-331q0 -48 -23.5 -63.5t-45.5 -15.5h-257q-46 0 -56.5 33t-10.5 35v1163q0 43 13 60.5t67 17.5h244q66 0 66 -68v-380l369 410q27 30 63 29h315q56 0 56 -44q0 -17 -19 -38l-420 -445
l529 -680h-2q24 -24 24 -50z" />
    <glyph glyph-name="Lacute" unicode="&#x139;" horiz-adv-x="1207" 
d="M129 1477q0 18 12 31t34 14h303q18 0 32 -12t15 -33v-1115h564q18 0 31 -12t14 -34v-269q0 -17 -12 -31t-33 -16h-915q-45 0 -45 45v1432zM195 1646q-27 0 -27 27q0 11 3 25l58 233q9 46 55 43h264q41 0 34 -42q-2 -12 -8 -23l-100 -220q-22 -43 -55 -43h-224z" />
    <glyph glyph-name="lacute" unicode="&#x13a;" horiz-adv-x="634" 
d="M123 1609q0 78 73 78h250q22 -1 44 -23t22 -55v-1530q0 -39 -22 -59t-57 -20h-237q-40 0 -57 20q-16 20 -16 59v1530zM181 1842q-28 0 -26 28q0 11 3 24t5 23l53 211q9 43 54 43h265q29 0 33 -22q6 -16 -7 -44l-100 -220q-22 -43 -55 -43h-225z" />
    <glyph glyph-name="Lcommaaccent" unicode="&#x13b;" horiz-adv-x="1207" 
d="M129 1477q0 18 12 31t34 14h303q18 0 32 -12t15 -33v-1115h564q18 0 31 -12t14 -34v-269q0 -17 -12 -31t-33 -16h-915q-45 0 -45 45v1432zM495 -259q0 40 41 40h241q15 0 29 -11t14 -29v-263q0 -87 -44 -163t-129 -125q-1 -1 -17 -1t-29 11l-62 54q-18 14 -18 28t26 38
q54 50 54 97v40q0 15 -16 20h-53q-38 1 -37 40v224z" />
    <glyph glyph-name="lcommaaccent" unicode="&#x13c;" horiz-adv-x="634" 
d="M128 1609q0 78 73 78h251q20 -1 42 -23t23 -55v-1530q0 -39 -22 -59t-57 -20h-237q-40 0 -57 20q-16 20 -16 59v1530zM156 -230q0 38 41 40h241q15 0 29 -11t14 -29v-264q-1 -86 -45 -162t-128 -125q-1 -1 -17 -1t-29 11l-62 53q-18 14 -18 29q0 14 24 35q56 50 56 100
v40q0 15 -16 19h-52q-38 1 -38 40v225z" />
    <glyph glyph-name="Lcaron" unicode="&#x13d;" horiz-adv-x="1207" 
d="M129 1477q0 18 12 31t34 14h303q18 0 32 -12t15 -33v-1115h564q18 0 31 -12t14 -34v-269q0 -17 -12 -31t-33 -16h-915q-45 0 -45 45v1432zM780 1478q0 43 45 45h271q17 -1 32 -13t16 -32v-294q0 -96 -50 -182t-144 -138q-3 -3 -22 -3t-29 15l-71 58q-18 13 -18 30t29 43
q60 56 60 109v45q0 19 -18 22h-59q-42 2 -42 45v250z" />
    <glyph glyph-name="lcaron" unicode="&#x13e;" horiz-adv-x="902" 
d="M144 1609q0 78 73 78h251q20 0 43 -23t23 -55v-1530q0 -39 -22 -59t-57 -20h-238q-40 0 -56 20t-17 59v1530zM565 1563q0 40 41 40h242q16 0 30 -11t14 -29v-264q0 -86 -45 -163t-129 -123q-3 -3 -21 -3t-25 13l-63 52q-17 12 -17 27q0 16 26 41q54 52 54 96v40
q0 17 -17 19h-52q-38 2 -38 41v224z" />
    <glyph glyph-name="Ldot" unicode="&#x13f;" horiz-adv-x="1207" 
d="M129 1477q0 18 12 31t34 14h303q18 0 32 -12t15 -33v-1115h564q18 0 31 -12t14 -34v-269q0 -17 -12 -31t-33 -16h-915q-45 0 -45 45v1432zM825 969q0 43 43 43h201q14 0 28 -12t14 -31v-194q0 -18 -12 -34t-30 -16h-201q-43 0 -43 50v194z" />
    <glyph glyph-name="ldot" unicode="&#x140;" horiz-adv-x="1080" 
d="M123 1609q0 78 73 78h250q22 -1 44 -23t22 -55v-1530q0 -39 -22 -59t-57 -20h-237q-40 0 -57 20q-16 20 -16 59v1530zM1042 703q0 -45 -47 -47h-270q-45 0 -45 47v248q0 45 45 45h270q17 0 33 -12t14 -33v-248z" />
    <glyph glyph-name="Lslash" unicode="&#x141;" horiz-adv-x="1207" 
d="M129 1477q0 18 12.5 31.5t33.5 13.5h303q17 0 31.5 -12.5t15.5 -32.5v-523l99 36q26 10 40 -20l43 -115q12 -33 -18 -45l-164 -60v-388h564q18 0 31.5 -12t13.5 -34v-269q0 -17 -12 -31.5t-33 -15.5h-915q-45 0 -45 45v559l-80 -29q-31 -10 -45 23l-43 115q-10 32 23 45
l145 52v667z" />
    <glyph glyph-name="lslash" unicode="&#x142;" horiz-adv-x="634" 
d="M128 1609q0 78 73 78h251q20 -1 42 -23t23 -55v-584l94 34q27 12 41 -21l44 -108q12 -34 -18 -45l-161 -59v-747q0 -39 -22 -59t-57 -20h-237q-40 0 -57 20q-16 20 -16 59v604l-90 -33q-31 -10 -45 23l-44 108q-9 32 22 45l157 57v726z" />
    <glyph glyph-name="Nacute" unicode="&#x143;" horiz-adv-x="1678" 
d="M1509 40q0 -40 -46 -40h-326q-22 0 -45 34q-41 68 -540 891v-880q0 -23 -10 -34t-37 -11h-291q-45 0 -45 44v1432q0 43 45 45h335q35 0 56 -32q130 -210 258 -414t259 -413v820q8 37 45 39h292q22 0 36 -12t14 -33v-1436zM708 1646q-27 0 -27 27q0 11 3 25l58 233
q9 46 55 43h264q41 0 34 -42q-2 -12 -8 -23l-100 -220q-22 -43 -55 -43h-224z" />
    <glyph glyph-name="nacute" unicode="&#x144;" horiz-adv-x="1438" 
d="M516 76q0 -76 -79 -76h-231q-83 0 -83 79v1146q0 41 33 61l-6 -3q20 17 56 17h154q59 0 80 -79l32 -131q68 146 226 207q62 24 162 24t194 -45q95 -45 162 -123q141 -164 141 -403v-671q0 -79 -71 -79h-236q-44 0 -61 15q-16 15 -16 58v666q0 87 -72 152q-72 66 -155 66
t-154 -64t-76 -152v-665zM651 1424q-29 0 -26 28q0 10 3 24l58 234q9 43 54 43h265q56 0 26 -65l-100 -221q-22 -41 -55 -43h-225z" />
    <glyph glyph-name="Ncommaaccent" unicode="&#x145;" horiz-adv-x="1678" 
d="M1509 40q0 -40 -46 -40h-326q-22 0 -45 34q-41 68 -540 891v-880q0 -23 -10 -34t-37 -11h-291q-45 0 -45 44v1432q0 43 45 45h335q35 0 56 -32q130 -210 258 -414t259 -413v820q8 37 45 39h292q22 0 36 -12t14 -33v-1436zM669 -259q0 40 41 40h241q15 0 29 -11t14 -29
v-263q0 -87 -44 -163t-129 -125q-1 -1 -17 -1t-29 11l-62 54q-18 14 -18 28t26 38q54 50 54 97v40q0 15 -16 20h-52q-38 1 -38 40v224z" />
    <glyph glyph-name="ncommaaccent" unicode="&#x146;" horiz-adv-x="1482" 
d="M209 1300h155q58 0 79 -79l32 -131q68 146 226 207q61 24 161 24t195 -45t162 -123q141 -164 141 -403v-671q0 -79 -71 -79h-236q-44 0 -61 15q-16 15 -16 58v666q0 87 -72 152q-72 66 -156 66q-83 0 -153 -65t-76 -151v-665q0 -76 -79 -76h-231q-83 0 -83 79v1146
q0 41 33 61l-6 -3q20 17 56 17zM689 -231q0 38 41 40h242q15 0 29 -11t14 -29v-264q0 -87 -45 -163t-128 -124q-1 -1 -17 -1t-29 11l-63 53q-34 27 0 59q61 56 63 105v40q0 15 -17 19h-52q-38 1 -38 40v225z" />
    <glyph glyph-name="Ncaron" unicode="&#x147;" horiz-adv-x="1678" 
d="M1509 40q0 -40 -46 -40h-326q-22 0 -45 34q-41 68 -540 891v-880q0 -23 -10 -34t-37 -11h-291q-45 0 -45 44v1432q0 43 45 45h335q35 0 56 -32q130 -210 258 -414t259 -413v820q8 37 45 39h292q22 0 36 -12t14 -33v-1436zM840 1606q-9 0 -22 9l-263 262q-8 6 -8 19t9 24
l90 92q11 11 26 11t24 -9l143 -145l145 146q21 21 45 -3l92 -89q9 -9 9 -23t-9 -22l-260 -263q-12 -9 -21 -9z" />
    <glyph glyph-name="ncaron" unicode="&#x148;" horiz-adv-x="1438" 
d="M516 76q0 -76 -79 -76h-231q-83 0 -83 79v1146q0 41 33 61l-6 -3q20 17 56 17h154q59 0 80 -79l32 -131q68 146 226 207q62 24 162 24t194 -45q95 -45 162 -123q141 -164 141 -403v-671q0 -79 -71 -79h-236q-44 0 -61 15q-16 15 -16 58v666q0 87 -72 152q-72 66 -155 66
t-154 -64t-76 -152v-665zM820 1397q-9 0 -21 9l-263 262q-8 6 -8 19t9 24l90 92q26 26 50 2l142 -145l146 146q22 22 45 -3l92 -89q6 -6 8 -19t-8 -26l-260 -263q-13 -9 -22 -9z" />
    <glyph glyph-name="napostrophe" unicode="&#x149;" horiz-adv-x="1696" 
d="M773 76q0 -76 -79 -76h-231q-83 0 -83 79v1146q0 41 33 61l-6 -3q20 17 56 17h154q59 0 80 -79l32 -131q68 146 226 207q61 24 161 24t195 -45t162 -123q141 -164 141 -403v-671q0 -79 -71 -79h-236q-44 0 -61 15q-16 15 -16 58v666q0 87 -72 152q-72 66 -155 66
t-154 -64t-76 -152v-665zM-34 1258q0 16 11 28t30 12h242q15 0 29 -10t14 -30v-263q0 -87 -45 -163t-128 -124q-1 -1 -17 -1t-29 11l-63 53q-34 27 1 59t48 54t14 51v40q0 15 -17 19h-52q-38 1 -38 40v224z" />
    <glyph glyph-name="Eng" unicode="&#x14a;" horiz-adv-x="1682" 
d="M173 1476q0 43 45 45h335q35 0 56 -32q129 -210 255 -410t252 -401v802q0 38 40 41h307q22 0 36 -12t14 -33v-1436q0 -79 -40 -166q-82 -179 -268 -258q-91 -38 -171 -38q-207 0 -342 117q-45 38 -79 89q-3 1 -3 22t17 33l178 167q35 30 64 5q14 -11 31 -25
q68 -56 139 -27q47 18 67 61v1q-7 9 -550 904v-880q0 -23 -10 -34t-37 -11h-291q-45 0 -45 44v1432z" />
    <glyph glyph-name="eng" unicode="&#x14b;" horiz-adv-x="1479" 
d="M206 1300h154q51 0 63 -32t17 -47l32 -131q68 146 178 188.5t210 42.5t194.5 -45t198.5 -166t104 -360v-671q0 -79 -71 -79h-236q-44 0 -60.5 15t-16.5 58v666q0 86 -71.5 152t-154.5 66t-154 -64t-77 -152v-665q0 -76 -79 -76h-231q-83 0 -83 79v1146q0 42 33 61l-6 -3
q20 17 56 17z" />
    <glyph glyph-name="Omacron" unicode="&#x14c;" horiz-adv-x="1800" 
d="M94 759q0 109 28 209q57 202 200 346t346 201q100 28 208 28q211 0 396 -107q274 -160 360 -469q28 -101 28 -209q0 -214 -105 -392t-285 -283q-180 -106 -394 -106q-213 0 -392 105q-180 105 -285 285t-105 392zM489 760q0 -172 110 -288q110 -115 278 -116t278 116
t110 286q0 170 -109 290q-113 120 -280 119t-277 -118t-110 -289zM1289 1921q36 0 36 -36v-158q0 -12 -9 -26t-27 -14h-797q-36 0 -36 40v158q0 36 36 36h797z" />
    <glyph glyph-name="omacron" unicode="&#x14d;" horiz-adv-x="1555" 
d="M481 648q0 -138 82 -229t214 -91q133 0 211 91q79 91 79 228q0 136 -78 233q-78 96 -211 96q-69 0 -123 -26q-107 -52 -153 -176q-22 -60 -21 -126zM804 1321q116 0 238 -52q251 -106 357 -355q53 -122 53 -240q0 -306 -196 -502t-475 -196q-183 0 -337 89t-245 243
t-91 340t91 344q196 329 605 329zM1177 1741q35 0 35 -36v-158q0 -12 -9 -26t-26 -15h-798q-36 0 -36 41v158q0 36 36 36h798z" />
    <glyph glyph-name="Obreve" unicode="&#x14e;" horiz-adv-x="1745" 
d="M94 759q0 109 28 209q57 202 200 346t346 201q100 28 208 28q211 0 396 -107q274 -160 360 -469q28 -101 28 -209q0 -214 -105 -392t-285 -283q-180 -106 -394 -106q-213 0 -392 105q-180 105 -285 285t-105 392zM489 760q0 -172 110 -288q110 -115 278 -116t278 116
t110 286q0 170 -109 290q-113 120 -280 119t-277 -118t-110 -289zM1124 1954q39 0 39 -44t-22 -90q-45 -94 -152 -139q-52 -21 -112 -21q-59 0 -111 22q-103 44 -150 139q-22 46 -22 79q1 54 40 54h147q24 0 24 -24t18 -42q17 -18 55 -18t56 19t19 42q0 23 22 23h149z" />
    <glyph glyph-name="obreve" unicode="&#x14f;" horiz-adv-x="1555" 
d="M481 648q0 -138 82 -229t214 -91q133 0 211 91q79 91 79 228q0 136 -78 233q-78 96 -211 96q-69 0 -123 -26q-107 -52 -153 -176q-22 -60 -21 -126zM804 1321q116 0 238 -52q251 -106 357 -355q53 -122 53 -240q0 -306 -196 -502t-475 -196q-183 0 -337 89t-245 243
t-91 340t91 344q196 329 605 329zM1023 1742q39 0 39 -44t-22 -90q-45 -94 -152 -139q-53 -21 -113 -21q-114 0 -199 79q-84 79 -82 177q0 17 11 28q12 10 27 10h148q23 0 23 -24q1 -24 19 -42t55 -18t56 19t19 42t21 23h150z" />
    <glyph glyph-name="Ohungarumlaut" unicode="&#x150;" horiz-adv-x="1745" 
d="M94 759q0 109 28 209q57 202 200 346t346 201q100 28 208 28q211 0 396 -107q274 -160 360 -469q28 -101 28 -209q0 -214 -105 -392t-285 -283q-180 -106 -394 -106q-213 0 -392 105q-180 105 -285 285t-105 392zM489 760q0 -172 110 -288q110 -115 278 -116t278 116
t110 286q0 170 -109 290q-113 120 -280 119t-277 -118t-110 -289zM1118 1973h217q53 0 23 -65l-90 -210q-22 -43 -56 -43h-224q-27 0 -26 22q0 24 9 38l93 215q19 43 54 43zM872 1973q34 0 34 -21q2 -16 -11 -44l-90 -210q-22 -43 -55 -43h-225q-27 0 -26 22q0 24 9 38
l93 215q19 43 54 43h217z" />
    <glyph glyph-name="ohungarumlaut" unicode="&#x151;" horiz-adv-x="1555" 
d="M481 648q0 -138 82 -229t214 -91q133 0 211 91q79 91 79 228q0 136 -78 233q-78 96 -211 96q-69 0 -123 -26q-107 -52 -153 -176q-22 -60 -21 -126zM804 1321q116 0 238 -52q251 -106 357 -355q53 -122 53 -240q0 -306 -196 -502t-475 -196q-183 0 -337 89t-245 243
t-91 340t91 344q196 329 605 329zM1013 1752h217q52 0 22 -65l-90 -210q-22 -43 -55 -43h-224q-27 0 -27 23t9 37l93 215q19 43 55 43zM550 1752h217q45 0 31 -42q-4 -12 -8 -23l-91 -210q-22 -43 -55 -43h-224q-27 0 -27 23t9 37l94 215q19 43 54 43z" />
    <glyph glyph-name="OE" unicode="&#x152;" horiz-adv-x="2486" 
d="M1144 475q110 116 110 288t-109 289.5t-278 117.5t-278.5 -118.5t-109.5 -288.5q0 -171 110.5 -287.5t277.5 -116.5t277 116zM84 816.5q0 269.5 185.5 457.5t337 230.5t259.5 42.5q209 0 390 -104v35q0 47 46 47h1016q47 0 47 -49v-254q0 -17 -12 -33.5t-36 -16.5h-663
v-252h512q45 0 45 -40v-222q0 -14 -11.5 -27.5t-32.5 -13.5h-513v-261h688q46 0 46 -47v-258q0 -10 -8 -18q-4 -29 -42 -29h-1036q-46 0 -46 44v37q-179 -103 -392 -103q-212 0 -389.5 104t-284 282.5t-106.5 448z" />
    <glyph glyph-name="oe" unicode="&#x153;" horiz-adv-x="2439" 
d="M1566.5 953.5q-67.5 -55.5 -105.5 -132.5h524q-50 91 -112 139.5t-150 48.5q-89 0 -156.5 -55.5zM481 648q0 -137 82 -228.5t214 -91.5t211 91t79 229t-79 233t-211 95t-214 -95.5t-82 -232.5zM1257 1124q188 197 450 197q261 0 442.5 -178t209.5 -436q-1 -53 -2.5 -87
t-21 -62t-139.5 -28h-747q18 -118 104.5 -173t191.5 -55t172.5 37t84.5 53q32 29 53.5 29.5t59.5 -35.5l108 -123q18 -21 18 -50t-38 -57q-191 -176 -442 -176q-144 0 -271.5 53.5t-222.5 148.5q-92 -96 -216.5 -151t-244.5 -55t-206 24t-160.5 67.5t-135.5 104
t-104.5 135.5t-67.5 161.5t-24 180.5t24 181.5t90.5 200.5t219.5 201.5t316 88.5q306 0 499 -197z" />
    <glyph glyph-name="Racute" unicode="&#x154;" horiz-adv-x="1440" 
d="M926 1136q-43 55 -113 66q-29 2 -54 4t-54 1h-142v-376h189q19 0 77 6q59 6 111 76q30 39 29 103q0 65 -43 120zM212 0q-45 0 -45 44v1430q0 47 45 47h661q210 0 358 -146t148 -351t-152 -351q-47 -45 -102 -76l264 -496q7 -14 18 -33t11 -34q0 -34 -40 -34h-351
q-41 0 -49 38l-249 468h-166v-462q0 -44 -47 -44h-304zM595 1648q-27 0 -27 27q0 20 9 47l53 211q10 46 54 43h264q57 0 27 -65l-101 -220q-22 -43 -55 -43h-224z" />
    <glyph glyph-name="racute" unicode="&#x155;" horiz-adv-x="1178" 
d="M515 79q0 -79 -82 -79h-230q-80 0 -80 79v1146q0 36 27 58q27 17 55 17h154q46 0 63 -51q6 -14 11 -23t11 -25t14 -35t14 -36q7 -17 8 -22q31 34 59 71t60 69q71 71 170 72q98 1 161 -25t174 -104q71 -38 26 -113l-93 -158q-41 -63 -114 -29q-87 85 -193 85t-172 -92
q-22 -29 -43 -64v-741zM420 1424q-27 0 -27 28q0 10 3 24l59 234q9 43 54 43h264q41 0 34 -42q-2 -12 -7 -23l-101 -221q-22 -41 -55 -43h-224z" />
    <glyph glyph-name="Rcommaaccent" unicode="&#x156;" horiz-adv-x="1455" 
d="M926 1136q-43 55 -113 66q-29 2 -54 4t-54 1h-142v-376h189q19 0 77 6q59 6 111 76q30 39 29 103q0 65 -43 120zM212 0q-45 0 -45 44v1430q0 47 45 47h661q210 0 358 -146t148 -351t-152 -351q-47 -45 -102 -76l264 -496q7 -14 18 -33t11 -34q0 -34 -40 -34h-351
q-41 0 -49 38l-249 468h-166v-462q0 -44 -47 -44h-304zM568 -259q0 17 11 29t30 11h242q15 0 29 -11t14 -29v-263q0 -87 -45 -163t-128 -125q-1 -1 -17 -1t-29 11l-63 54q-17 14 -17 28t12 26t40 38q28 28 28 71v40q0 15 -17 20h-52q-38 1 -38 40v224z" />
    <glyph glyph-name="rcommaaccent" unicode="&#x157;" horiz-adv-x="1178" 
d="M512 79q0 -79 -82 -79h-230q-80 0 -80 79v1146q0 37 26 58q27 17 56 17h154q46 0 63 -51q6 -14 11 -23t11 -25q5 -16 13 -35t14 -36t9 -22q31 34 59 71t60 69q71 71 170 72q98 1 161 -25t174 -104q71 -38 26 -113l-93 -158q-41 -63 -114 -29q-87 85 -193 85t-172 -92
q-22 -29 -43 -64v-741zM132 -230q0 38 41 40h242q15 0 29 -11t14 -29v-264q0 -86 -45 -162t-128 -125q-1 -1 -17 -1t-29 11l-63 53q-34 27 0 59q61 56 63 105v40q0 15 -17 19h-52q-38 1 -38 40v225z" />
    <glyph glyph-name="Rcaron" unicode="&#x158;" horiz-adv-x="1440" 
d="M926 1136q-43 55 -113 66q-29 2 -54 4t-54 1h-142v-376h189q19 0 77 6q59 6 111 76q30 39 29 103q0 65 -43 120zM212 0q-45 0 -45 44v1430q0 47 45 47h661q210 0 358 -146t148 -351t-152 -351q-47 -45 -102 -76l264 -496q7 -14 18 -33t11 -34q0 -34 -40 -34h-351
q-41 0 -49 38l-249 468h-166v-462q0 -44 -47 -44h-304zM715 1610q-9 0 -22 9l-263 262q-8 6 -8 19t9 24l90 92q11 12 26 12t24 -10l143 -145l145 146q22 22 45 -3l92 -89q22 -22 0 -45l-260 -263q-12 -9 -21 -9z" />
    <glyph glyph-name="rcaron" unicode="&#x159;" horiz-adv-x="1178" 
d="M515 79q0 -79 -82 -79h-230q-80 0 -80 79v1146q0 36 27 58q27 17 55 17h154q46 0 63 -51q6 -14 11 -23t11 -25t14 -35t14 -36q7 -17 8 -22q31 34 59 71t60 69q71 71 170 72q98 1 161 -25t174 -104q71 -38 26 -113l-93 -158q-41 -63 -114 -29q-87 85 -193 85t-172 -92
q-22 -29 -43 -64v-741zM442 1803q14 0 24 -9l142 -145l146 146q21 21 45 -3l92 -89q9 -9 9 -23t-9 -22l-260 -263q-23 -17 -43 0l-263 262q-21 16 1 43l90 92q12 11 26 11z" />
    <glyph glyph-name="Sacute" unicode="&#x15a;" horiz-adv-x="1343" 
d="M674 331q181 0 181 144q0 30 -32 63t-97 59q-65 25 -140 51t-167 76q-277 149 -277 408q0 191 148 306t407 115t457 -173q51 -42 51 -67t-26 -53l-157 -167q-30 -30 -61 -10q-9 6 -32 26q-125 109 -228 106q-164 0 -164 -104q0 -76 128 -122q42 -15 125 -43
q230 -76 332 -160q140 -113 141 -323t-169 -346t-411 -136q-242 0 -458 154q-30 22 -73 66q-44 44 -60 59q-33 31 8 71l178 169q22 15 35 15q13 1 37 -19q22 -20 50 -44q138 -121 274 -121zM599 1646q-27 0 -27 27q0 20 9 47l53 211q10 46 54 43h264q57 0 27 -65l-100 -220
q-22 -43 -56 -43h-224z" />
    <glyph glyph-name="sacute" unicode="&#x15b;" horiz-adv-x="1185" 
d="M522 305q175 0 175 85q0 52 -44 74q-23 12 -53 21t-70 22q-335 90 -394 304q-18 67 -18 145q0 165 129 268t344 103q126 0 227 -44t198 -146q36 -43 -4 -76q-90 -74 -153 -136q-43 -35 -83 10q-66 73 -176 73t-104 -71q4 -60 109 -80q104 -20 207 -66q103 -47 159 -97
q117 -106 118 -300t-149 -307q-150 -114 -371 -114q-222 0 -380 113q-55 39 -88 82t-32 76q2 32 24 49l132 132q25 20 43 14q18 -7 48 -35q49 -48 113 -73q65 -26 93 -26zM495 1424q-27 0 -27 28q0 10 3 24l58 234q9 43 55 43h264q41 0 34 -42q-2 -12 -8 -23l-100 -221
q-22 -41 -55 -43h-224z" />
    <glyph glyph-name="Scircumflex" unicode="&#x15c;" horiz-adv-x="1343" 
d="M674 331q181 0 181 144q0 30 -32 63t-97 59q-65 25 -140 51t-167 76q-277 149 -277 408q0 191 148 306t407 115t457 -173q51 -42 51 -67t-26 -53l-157 -167q-30 -30 -61 -10q-9 6 -32 26q-125 109 -228 106q-164 0 -164 -104q0 -76 128 -122q42 -15 125 -43
q230 -76 332 -160q140 -113 141 -323t-169 -346t-411 -136q-242 0 -458 154q-30 22 -73 66q-44 44 -60 59q-33 31 8 71l178 169q22 15 35 15q13 1 37 -19q22 -20 50 -44q138 -121 274 -121zM681 2037q9 0 21 -9l264 -263q8 -6 8 -19t-9 -24l-91 -92q-12 -11 -26 -11t-24 9
l-142 146l-145 -147q-21 -21 -45 3l-93 89q-19 19 0 45l260 264q13 9 22 9z" />
    <glyph glyph-name="scircumflex" unicode="&#x15d;" horiz-adv-x="1185" 
d="M522 305q175 0 175 85q0 52 -44 74q-23 12 -53 21t-70 22q-335 90 -394 304q-18 67 -18 145q0 165 129 268t344 103q126 0 227 -44t198 -146q36 -43 -4 -76q-90 -74 -153 -136q-43 -35 -83 10q-66 73 -176 73t-104 -71q4 -60 109 -80q104 -20 207 -66q103 -47 159 -97
q117 -106 118 -300t-149 -307q-150 -114 -371 -114q-222 0 -380 113q-55 39 -88 82t-32 76q2 32 24 49l132 132q25 20 43 14q18 -7 48 -35q49 -48 113 -73q65 -26 93 -26zM610 1829q9 0 22 -9l263 -262q8 -6 8 -20t-9 -24l-90 -92q-11 -11 -26 -11t-24 9l-143 146l-145 -147
q-21 -21 -45 3l-92 89q-7 7 -9 21q-1 14 9 24l260 264q12 9 21 9z" />
    <glyph glyph-name="Scedilla" unicode="&#x15e;" horiz-adv-x="1343" 
d="M674 331q181 0 181 144q0 30 -32 63t-97 59q-65 25 -140 51t-167 76q-277 149 -277 408q0 191 148 306t407 115t457 -173q51 -42 51 -67t-26 -53l-157 -167q-30 -30 -61 -10q-9 6 -32 26q-125 109 -228 106q-164 0 -164 -104q0 -76 128 -122q42 -15 125 -43
q230 -76 332 -160q140 -113 141 -323t-172 -347q-117 -95 -281 -123q-31 -29 1 -57t76 -54q121 -71 121 -155t-99 -172t-247 -134h-6q-23 0 -65 71t-42 91t11 27q175 44 175 108q0 46 -102 105q-102 60 -105 128q0 26 14 42q-161 30 -317 142q-30 22 -73 66q-44 44 -60 59
q-33 31 8 71l178 169q22 15 35 15q13 1 37 -19q22 -20 50 -44q138 -121 274 -121z" />
    <glyph glyph-name="scedilla" unicode="&#x15f;" horiz-adv-x="1185" 
d="M522 305q175 0 175 85q0 52 -44 74q-23 12 -53 21t-70 22q-335 90 -394 304q-18 67 -18 145q0 165 129 268t344 103q126 0 227 -44t198 -146q36 -43 -4 -76q-90 -74 -153 -136q-43 -35 -83 10q-66 73 -176 73t-104 -71q4 -60 109 -80q104 -20 207 -66q103 -47 159 -97
q117 -106 118 -300t-151 -309q-104 -79 -253 -102q-1 -5 -1 -15q0 -19 55 -52q23 -15 51 -32t50 -39q54 -53 55 -103q0 -89 -98 -177q-98 -87 -248 -133h-5q-25 0 -66 72q-42 72 -42 91t11 25q175 44 176 109q0 35 -54 73q-23 16 -50 32q-103 61 -103 127q0 18 4 26
q-126 24 -231 99q-55 39 -88 82t-32 76q2 32 24 49l132 132q25 20 43 14q18 -7 48 -35q49 -48 113 -73q65 -26 93 -26z" />
    <glyph glyph-name="Scaron" unicode="&#x160;" horiz-adv-x="1343" 
d="M674 331q181 0 181 144q0 30 -32 63t-97 59q-65 25 -140 51t-167 76q-277 149 -277 408q0 191 148 306t407 115t457 -173q51 -42 51 -67t-26 -53l-157 -167q-30 -30 -61 -10q-9 6 -32 26q-125 109 -228 106q-164 0 -164 -104q0 -76 128 -122q42 -15 125 -43
q230 -76 332 -160q140 -113 141 -323t-169 -346t-411 -136q-242 0 -458 154q-30 22 -73 66q-44 44 -60 59q-33 31 8 71l178 169q22 15 35 15q13 1 37 -19q22 -20 50 -44q138 -121 274 -121zM686 1633q-9 0 -21 9l-264 263q-8 7 -8 19t9 24l91 92q11 11 25 11t25 -9l142 -146
l145 147q22 22 46 -3l92 -89q19 -19 0 -45l-260 -264q-13 -9 -22 -9z" />
    <glyph glyph-name="scaron" unicode="&#x161;" horiz-adv-x="1185" 
d="M522 305q175 0 175 85q0 52 -44 74q-23 12 -53 21t-70 22q-335 90 -394 304q-18 67 -18 145q0 165 129 268t344 103q126 0 227 -44t198 -146q36 -43 -4 -76q-90 -74 -153 -136q-43 -35 -83 10q-66 73 -176 73t-104 -71q4 -60 109 -80q104 -20 207 -66q103 -47 159 -97
q117 -106 118 -300t-149 -307q-150 -114 -371 -114q-222 0 -380 113q-55 39 -88 82t-32 76q2 32 24 49l132 132q25 20 43 14q18 -7 48 -35q49 -48 113 -73q65 -26 93 -26zM607 1393q-9 0 -21 9l-263 262q-9 6 -9 19t10 24l90 92q12 11 26 11t24 -9l142 -145l146 146
q21 21 45 -3l92 -89q6 -6 8 -19t-8 -26l-260 -263q-13 -9 -22 -9z" />
    <glyph glyph-name="Tcommaaccent" unicode="&#x162;" horiz-adv-x="1363" 
d="M82 1476q0 20 14 32t34 13h1103q19 1 33 -11t16 -34v-255q0 -17 -13 -35t-36 -18h-353v-1120q0 -18 -14 -33t-35 -15h-301q-17 0 -32 14t-16 34v1120h-352q-20 0 -34 14t-14 39v255zM523 -259q0 17 11 29t30 11h242q15 0 29 -11t14 -29v-263q0 -87 -45 -163t-128 -125
q-1 -1 -17 -1t-29 11l-63 54q-33 28 -5 54q12 12 39 38q27 27 29 71v40q0 15 -17 20h-52q-38 1 -38 40v224z" />
    <glyph glyph-name="tcommaaccent" unicode="&#x163;" horiz-adv-x="866" 
d="M512 0h-231q-79 0 -79 79l-1 823h-75q-79 0 -79 83v198q0 78 79 78h75l1 242q0 32 21 48t60 30l232 81q5 1 10 1h9q38 0 50 -22t13 -58l-1 -322h171q72 0 74 -78v-198q-1 -43 -21 -63t-53 -20h-171l1 -823q0 -79 -85 -79zM232 -230q0 38 41 40h242q15 0 29 -11t14 -29
v-264q0 -86 -44 -162t-129 -125q-1 -1 -17 -1t-29 11l-63 53q-17 14 -17 28q0 15 25 38q55 50 55 98v40q0 15 -16 19h-53q-38 1 -38 40v225z" />
    <glyph glyph-name="Tcaron" unicode="&#x164;" horiz-adv-x="1363" 
d="M82 1476q0 20 14 32t34 13h1103q19 1 33 -11t16 -34v-255q0 -17 -13 -35t-36 -18h-353v-1120q0 -18 -14 -33t-35 -15h-301q-17 0 -32 14t-16 34v1120h-352q-20 0 -34 14t-14 39v255zM390 1917q0 13 9 25l90 92q11 11 26 11t25 -9l142 -146l145 147q21 21 45 -3l93 -89
q19 -19 0 -45l-260 -264q-13 -9 -22 -9t-21 9l-264 262q-8 6 -8 19z" />
    <glyph glyph-name="tcaron" unicode="&#x165;" horiz-adv-x="1133" 
d="M512 0h-231q-79 0 -79 79l-1 823h-75q-79 0 -79 83v198q0 78 79 78h75l1 242q0 32 21 48t60 30l232 81q5 1 10 1h9q38 0 50 -22t13 -58l-1 -322h171q72 0 74 -78v-198q-1 -43 -21 -63t-53 -20h-171l1 -823q0 -79 -85 -79zM826 1710q0 16 11 28t30 12h242q15 0 29 -11
t14 -29v-263q0 -87 -45 -163t-128 -125q-1 -1 -17 -1t-29 11l-63 54q-17 14 -17 28q0 13 12 25l40 40t28 70v40q0 15 -17 20h-52q-38 1 -38 40v224z" />
    <glyph glyph-name="Tbar" unicode="&#x166;" horiz-adv-x="1363" 
d="M82 1476q0 20 14 32t34 13h1103q19 1 33 -11t16 -34v-255q0 -17 -13 -35t-36 -18h-353v-90h126q18 0 31 -12t14 -33v-198q-1 -19 -13 -33t-32 -15h-126v-739q0 -18 -14 -33t-35 -15h-301q-17 0 -32 14t-16 34v739h-141q-48 0 -48 48v198q0 45 48 45h141v90h-352
q-20 0 -34 14t-14 39v255z" />
    <glyph glyph-name="tbar" unicode="&#x167;" horiz-adv-x="829" 
d="M600 79q0 -79 -85 -79h-231q-79 0 -79 79l-1 429h-51q-36 0 -36 36v130q0 34 36 34h51v194h-75q-79 0 -79 83v198q0 78 79 78h75l1 242q0 32 21 48t60 30l232 81q5 1 10 1h9q39 0 51 -22t12 -58l-1 -322h171q72 0 74 -78v-198q0 -43 -20 -63t-54 -20h-171v-194h57
q32 0 32 -34v-130q0 -14 -9 -25t-23 -11h-56v-429z" />
    <glyph glyph-name="Utilde" unicode="&#x168;" horiz-adv-x="1587" 
d="M557 607q0 -140 71 -209t179 -69q109 0 181 74q71 74 71 204v869q0 18 13 31t34 14h299q24 0 37 -14t13 -31v-864q0 -334 -194 -497q-164 -137 -453 -139q-449 0 -596 339q-53 121 -52 297v864q0 17 12 31t29 14h307q15 0 32 -13t17 -32v-869zM678 1965q72 0 151 -46
q32 -17 63 -37t59 -20t58 30l33 41q19 28 40 5l106 -92q11 -11 15 -19t-7 -22l-31 -40q-89 -121 -229 -119q-79 0 -160 51l-56 36q-24 15 -54 15t-54 -30l-31 -41q-5 -9 -21 -11t-25 7l-106 89q-13 13 -12 25t28 48q95 130 233 130z" />
    <glyph glyph-name="utilde" unicode="&#x169;" horiz-adv-x="1437" 
d="M1119 0q-48 0 -69 50q-6 14 -11 30l-31 131q-69 -147 -227 -207q-62 -24 -161 -24t-194 45t-162 123q-141 163 -141 403v671q0 80 71 78h236q44 0 60 -14t17 -58v-667q0 -84 72 -151t155 -67t156 66q74 66 74 150v666q0 75 78 75h232q81 0 83 -78v-1146q0 -40 -33 -62
l6 3q-20 -17 -56 -17h-155zM620 1750q72 0 151 -46q32 -17 63 -37t60 -20q28 0 56 30l34 41q19 28 40 5l105 -92q11 -11 15 -19t-6 -22l-31 -40q-89 -121 -229 -119q-79 0 -160 51l-56 36q-24 15 -54 15t-54 -30l-32 -41q-6 -10 -21 -12t-25 8l-105 89q-13 13 -13 24t36 58
q58 86 168 113q32 8 58 8z" />
    <glyph glyph-name="Umacron" unicode="&#x16a;" horiz-adv-x="1540" 
d="M557 607q0 -140 71 -209t179 -69q109 0 181 74q71 74 71 204v869q0 18 13 31t34 14h299q24 0 37 -14t13 -31v-864q0 -334 -194 -497q-164 -137 -453 -139q-449 0 -596 339q-53 121 -52 297v864q0 17 12 31t29 14h307q15 0 32 -13t17 -32v-869zM1192 1920q36 0 36 -36
v-158q0 -12 -9 -26t-27 -14h-798q-36 0 -36 40v158q0 36 36 36h798z" />
    <glyph glyph-name="umacron" unicode="&#x16b;" horiz-adv-x="1437" 
d="M1119 0q-48 0 -69 50q-6 14 -11 30l-31 131q-69 -147 -227 -207q-62 -24 -161 -24t-194 45t-162 123q-141 163 -141 403v671q0 80 71 78h236q44 0 60 -14t17 -58v-667q0 -84 72 -151t155 -67t156 66q74 66 74 150v666q0 75 78 75h232q81 0 83 -78v-1146q0 -40 -33 -62
l6 3q-20 -17 -56 -17h-155zM1117 1741q36 0 36 -36v-158q0 -12 -9 -26t-27 -15h-798q-36 0 -35 41v158q0 36 35 36h798z" />
    <glyph glyph-name="Ubreve" unicode="&#x16c;" horiz-adv-x="1587" 
d="M557 607q0 -140 71 -209t179 -69q109 0 181 74q71 74 71 204v869q0 18 13 31t34 14h299q24 0 37 -14t13 -31v-864q0 -334 -194 -497q-164 -137 -453 -139q-449 0 -596 339q-53 121 -52 297v864q0 17 12 31t29 14h307q15 0 32 -13t17 -32v-869zM1043 1938q39 0 39 -54
q0 -34 -22 -80q-44 -93 -152 -138q-52 -21 -112 -21q-115 0 -199 78q-83 78 -83 178q0 17 12 27t27 10h147q24 0 24 -23t18 -42t56 -19t56 20t18 42q0 24 22 22h149z" />
    <glyph glyph-name="ubreve" unicode="&#x16d;" horiz-adv-x="1437" 
d="M1119 0q-48 0 -69 50q-6 14 -11 30l-31 131q-69 -147 -227 -207q-62 -24 -161 -24t-194 45t-162 123q-141 163 -141 403v671q0 80 71 78h236q44 0 60 -14t17 -58v-667q0 -84 72 -151t155 -67t156 66q74 66 74 150v666q0 75 78 75h232q81 0 83 -78v-1146q0 -40 -33 -62
l6 3q-20 -17 -56 -17h-155zM991 1742q39 0 39 -44t-22 -90q-45 -94 -152 -139q-53 -21 -113 -21t-111 22q-103 44 -149 139q-21 46 -21 79q1 54 39 54h147q24 0 24 -24t18 -42t56 -18t56 19t18 42t22 23h149z" />
    <glyph glyph-name="Uring" unicode="&#x16e;" horiz-adv-x="1587" 
d="M557 607q0 -140 71 -209t179 -69q109 0 181 74q71 74 71 204v869q0 18 13 31t34 14h299q24 0 37 -14t13 -31v-864q0 -334 -194 -497q-164 -137 -453 -139q-449 0 -596 339q-53 121 -52 297v864q0 17 12 31t29 14h307q15 0 32 -13t17 -32v-869zM799 1877q-27 0 -43 -17
t-16 -44t16 -43q16 -17 43 -17t44 16t17 44q0 27 -17 44t-44 17zM950 1967q64 -65 64 -153t-64 -150t-153 -63t-151 61t-62 152t62 154q62 63 151 63t153 -64z" />
    <glyph glyph-name="uring" unicode="&#x16f;" horiz-adv-x="1437" 
d="M1119 0q-48 0 -69 50q-6 14 -11 30l-31 131q-69 -147 -227 -207q-62 -24 -161 -24t-194 45t-162 123q-141 163 -141 403v671q0 80 71 78h236q44 0 60 -14t17 -58v-667q0 -84 72 -151t155 -67t156 66q74 66 74 150v666q0 75 78 75h232q81 0 83 -78v-1146q0 -40 -33 -62
l6 3q-20 -17 -56 -17h-155zM752 1671q-27 0 -43 -17q-17 -17 -17 -44t16 -43q16 -17 44 -17q27 0 44 16t17 44q0 27 -17 44t-44 17zM903 1761q64 -64 64 -153t-64 -151t-154 -62t-151 62t-61 152t62 153t151 63t153 -64z" />
    <glyph glyph-name="Uhungarumlaut" unicode="&#x170;" horiz-adv-x="1587" 
d="M557 607q0 -140 71 -209t179 -69q109 0 181 74q71 74 71 204v869q0 18 13 31t34 14h299q24 0 37 -14t13 -31v-864q0 -334 -194 -497q-164 -137 -453 -139q-449 0 -596 339q-53 121 -52 297v864q0 17 12 31t29 14h307q15 0 32 -13t17 -32v-869zM1025 1965h217q45 0 31 -42
q-4 -12 -8 -23l-90 -210q-22 -43 -56 -43h-224q-27 0 -27 23t10 37l93 215q19 43 54 43zM562 1965h217q45 0 31 -42q-4 -12 -8 -23l-90 -210q-22 -43 -56 -43h-224q-27 0 -26 22q0 24 9 38l93 215q19 43 54 43z" />
    <glyph glyph-name="uhungarumlaut" unicode="&#x171;" horiz-adv-x="1437" 
d="M1119 0q-48 0 -69 50q-6 14 -11 30l-31 131q-69 -147 -227 -207q-62 -24 -161 -24t-194 45t-162 123q-141 163 -141 403v671q0 80 71 78h236q44 0 60 -14t17 -58v-667q0 -84 72 -151t155 -67t156 66q74 66 74 150v666q0 75 78 75h232q81 0 83 -78v-1146q0 -40 -33 -62
l6 3q-20 -17 -56 -17h-155zM1179 1753q33 0 33 -21q2 -16 -11 -44l-90 -210q-22 -43 -55 -43h-225q-27 0 -26 22q0 24 9 38l93 215q19 43 55 43h217zM499 1753h217q52 0 22 -65l-90 -210q-22 -43 -55 -43h-224q-27 0 -27 23t9 37l93 215q19 43 55 43z" />
    <glyph glyph-name="Uogonek" unicode="&#x172;" horiz-adv-x="1540" 
d="M1455 612q0 -553 -523 -628q8 -13 8 -38q0 -47 -54 -88q-23 -18 -70 -48t-65 -49q-17 -20 -18 -43q0 -65 175 -108q21 -12 5 -49q-60 -140 -101 -140h-5q-157 48 -252 135t-95 155q0 69 55 124q28 25 76 55q49 30 65 44t16 28t-9 25q-331 51 -451 328q-53 121 -52 297
v864q0 17 12 31t29 14h307q15 0 32 -13t17 -32v-869q0 -140 71 -209t179 -69q109 0 181 74q71 74 71 204v869q0 18 13 31t34 14h299q24 0 37 -14t13 -31v-864z" />
    <glyph glyph-name="uogonek" unicode="&#x173;" horiz-adv-x="1482" 
d="M1276 -24q0 -50 -96 -108q-56 -32 -76 -54t-20 -43q0 -60 163 -101q10 -6 10 -27q1 -21 -25 -63q-26 -43 -43 -64t-32 -21h-4q-140 43 -231 124t-91 157q0 75 98 138q25 16 61 39t37 44q0 21 -21 35h56q-10 14 -21 48l-31 131q-69 -147 -227 -207q-62 -24 -161 -24
t-194 45t-162 123q-141 163 -141 403v671q0 80 71 78h236q44 0 61 -14q16 -15 16 -58v-667q0 -84 72 -151t155 -67t156 66q74 66 74 150v666q0 75 78 75h232q81 0 83 -78v-1146q0 -40 -33 -62l6 3q-20 -17 -56 -17h-1q1 -6 1 -24z" />
    <glyph glyph-name="Wcircumflex" unicode="&#x174;" horiz-adv-x="2207" 
d="M57 1521h330q39 0 53 -39l314 -933l289 933q14 39 57 39h333q43 0 43 -32q0 -8 -1 -11v-3l-183 -523l138 -402l331 932q14 39 57 39h322q43 0 43 -32q0 -8 -1 -11v-3q-99 -254 -290 -723t-284 -713q-4 -11 -18 -25t-36 -14h-250q-41 0 -52 32l-161 426q-35 -93 -69 -183
q-34 -89 -54 -143q-29 -81 -45 -107q-16 -25 -44 -25h-251q-33 0 -43 22q-10 17 -20 35q-9 17 -79 201t-265 695q-196 511 -202 539q0 29 38 29zM1103 2041q9 0 21 -9l264 -263q8 -6 8 -19t-10 -24l-90 -92q-12 -11 -26 -11t-24 9l-142 146l-146 -147q-21 -21 -45 3l-92 89
q-19 19 0 45l260 264q13 9 22 9z" />
    <glyph glyph-name="wcircumflex" unicode="&#x175;" horiz-adv-x="1972" 
d="M356 1300q59 0 75 -54q17 -54 39 -122q22 -67 44 -137q63 -192 94 -286t48 -141l217 685q13 33 31 44t47 11h243q96 0 57 -88l-112 -275q17 -40 79 -163t94 -209l251 680q13 33 27 44t41 11h227q49 0 67 -18t2 -70l-480 -1168q-22 -44 -83 -44h-108q-60 0 -88 46
l-190 465l-187 -467q-27 -44 -73 -44h-122q-65 0 -83 44l-472 1155q-20 42 -8 72q13 30 61 29h262zM992 1816q8 0 21 -10l263 -262q8 -6 8 -19t-9 -24l-90 -92q-11 -11 -26 -11t-24 9l-143 145l-145 -146q-21 -21 -45 3l-92 89q-7 7 -9 21q-1 14 9 24l260 263q14 10 22 10z
" />
    <glyph glyph-name="Ycircumflex" unicode="&#x176;" horiz-adv-x="1443" 
d="M25 1507q0 14 15 14h394q7 -2 15 -4t24 -28l250 -530l248 530q14 29 27 29q5 1 11 3h394q7 0 16 -9t-14 -32l-485 -859v-573q0 -48 -48 -48h-307q-41 0 -43 48v575l-484 857q-13 13 -13 27zM723 2040q9 0 21 -9l264 -263q8 -6 8 -19t-9 -24l-91 -92q-12 -11 -26 -11
t-24 9l-142 146l-145 -147q-11 -11 -25 -8t-20 11l-93 89q-19 19 0 45l260 264q13 9 22 9z" />
    <glyph glyph-name="ycircumflex" unicode="&#x177;" horiz-adv-x="1453" 
d="M442 -513q-80 0 -80 60q0 30 10 40l160 418l-488 1197q-16 41 0 70t70 30h253q47 0 66 -56l290 -824l284 824q11 33 28 44t48 12h264q97 0 64 -89q-289 -712 -360 -892q-70 -180 -115 -293t-82 -208q-38 -94 -66 -166t-42 -111l4 5q-15 -61 -71 -61h-237zM725 1853
q9 0 21 -9l264 -262q8 -6 8 -19t-9 -24l-90 -92q-11 -11 -26 -11t-25 9l-142 145l-145 -146q-21 -21 -45 3l-93 89q-19 19 0 45l260 263q13 9 22 9z" />
    <glyph glyph-name="Ydieresis" unicode="&#x178;" horiz-adv-x="1443" 
d="M25 1507q0 14 15 14h394q7 -2 15 -4t24 -28l250 -530l248 530q14 29 27 29q5 1 11 3h394q7 0 16 -9t-14 -32l-485 -859v-573q0 -48 -48 -48h-307q-41 0 -43 48v575l-484 857q-13 13 -13 27zM807 1928q0 43 45 43h198q43 0 43 -43v-193q1 -19 -11 -35t-32 -16h-198
q-45 0 -45 51v193zM360 1928q0 43 43 43h201q14 0 28 -11t14 -32v-193q0 -19 -12 -35t-30 -16h-201q-43 0 -43 51v193z" />
    <glyph glyph-name="Zacute" unicode="&#x179;" horiz-adv-x="1466" 
d="M159 1168q-50 0 -48 51v257q0 43 48 45h1189q19 1 33 -11t14 -34v-207q0 -18 -6 -34l-742 -884h704q44 0 46 -46v-255q0 -18 -13 -34t-33 -16h-1189q-20 0 -35 13q-14 13 -13 37v220q0 16 7 27l739 871h-701zM611 1648q-28 0 -26 27q0 11 3 25l58 233q10 46 54 43h265
q56 0 26 -65l-100 -220q-22 -43 -55 -43h-225z" />
    <glyph glyph-name="zacute" unicode="&#x17a;" horiz-adv-x="1292" 
d="M201 975q-82 0 -82 85v166q0 36 22 58t60 22h862q33 0 58 -20t25 -60v-178q0 -28 -12 -47l-565 -669h506q81 0 81 -83v-161q0 -31 -22 -60q-22 -28 -59 -28h-903q-30 0 -56 26t-27 62v141q0 33 17 56q72 80 282 328t311 362h-498zM552 1424q-27 0 -27 28q0 20 9 47
l53 211q9 43 54 43h264q41 0 34 -42q-2 -12 -7 -23l-101 -221q-22 -41 -55 -43h-224z" />
    <glyph glyph-name="Zdotaccent" unicode="&#x17b;" horiz-adv-x="1466" 
d="M159 1168q-50 0 -48 51v257q0 43 48 45h1189q19 1 33 -11t14 -34v-207q0 -18 -6 -34l-742 -884h704q44 0 46 -46v-255q0 -18 -13 -34t-33 -16h-1189q-20 0 -35 13q-14 13 -13 37v220q0 16 7 27l739 871h-701zM613 1940q0 44 45 46h271q17 0 32 -12t15 -34v-247
q0 -19 -12 -33t-35 -14h-271q-45 0 -45 47v247z" />
    <glyph glyph-name="zdotaccent" unicode="&#x17c;" horiz-adv-x="1273" 
d="M198 975q-82 0 -82 85v166q0 36 22 58t60 22h862q33 0 58 -20t25 -60v-178q0 -28 -13 -47l-564 -669h506q81 0 81 -83v-161q0 -31 -22 -60q-22 -28 -59 -28h-903q-31 0 -57 26t-26 62v141q0 33 17 56q72 80 282 328t311 362h-498zM483 1709q0 43 43 43h201q14 0 28 -11
t14 -32v-193q0 -18 -12 -34t-30 -17h-201q-43 0 -43 51v193z" />
    <glyph glyph-name="Zcaron" unicode="&#x17d;" horiz-adv-x="1466" 
d="M159 1168q-50 0 -48 51v257q0 43 48 45h1189q19 1 33 -11t14 -34v-207q0 -18 -6 -34l-742 -884h704q44 0 46 -46v-255q0 -18 -13 -34t-33 -16h-1189q-20 0 -35 13q-14 13 -13 37v220q0 16 7 27l739 871h-701zM614 2041q14 0 25 -9l142 -146l146 147q21 21 45 -3l92 -90
q9 -9 9 -21t-9 -24l-260 -263q-13 -9 -22 -9t-21 9l-263 262q-8 6 -8 19t9 24l90 93q11 11 25 11z" />
    <glyph glyph-name="zcaron" unicode="&#x17e;" horiz-adv-x="1316" 
d="M225 975q-82 0 -82 85v166q0 36 22 58t60 22h862q33 0 58 -20t25 -60v-178q0 -30 -12 -47l-564 -669h506q81 0 81 -83v-161q0 -31 -22 -60q-22 -28 -59 -28h-903q-32 0 -59 28q-26 28 -24 60v141q0 35 17 56q72 80 282 328t311 362h-499zM367 1628q0 12 9 24l90 92
q11 11 26 11t24 -9l142 -145l146 146q21 21 45 -3l92 -89q9 -9 9 -23t-9 -22l-260 -263q-15 -10 -23 -10t-20 10l-263 262q-8 7 -8 19z" />
    <glyph glyph-name="florin" unicode="&#x192;" horiz-adv-x="784" 
d="M671 1018q53 0 53 -51v-184q0 -22 -14.5 -39t-38.5 -17h-108v-683q0 -234 -178 -376q-123 -87 -307 -87q-54 0 -54 50v231q0 20 11.5 32.5t30.5 12.5h4q84 0 107.5 41.5t23.5 67.5v711h-65q-53 0 -53 56v184q0 51 53 51h65v90q0 147 123.5 291t356.5 144q58 0 58 -52
v-229q0 -45 -41 -45h-5q-88 0 -109 -42.5t-21 -68.5v-88h108z" />
    <glyph glyph-name="AEacute" unicode="&#x1fc;" horiz-adv-x="2254" 
d="M744 574h304l-72 408zM2088 352q46 0 46 -47v-258q0 -19 -14 -33t-35 -14h-906q-42 0 -50 38q-18 104 -34 208h-533l-117 -208q-23 -38 -60 -38h-323q-33 0 -32 22q0 6 5 19q243 433 825 1440q23 38 65 40h1123q47 0 47 -50v-253q0 -18 -12 -34t-36 -16h-724l48 -258h278
q137 0 278 1q45 0 45 -41v-221q0 -14 -11 -27t-33 -14h-506l47 -256h619zM965 1645q-27 0 -27 27q0 10 3 24l58 234q9 46 55 43h264q41 0 34 -42q-2 -12 -7 -23l-101 -220q-22 -43 -55 -43h-224z" />
    <glyph glyph-name="aeacute" unicode="&#x1fd;" horiz-adv-x="2623" 
d="M475 648q0 -138 83 -229t216 -91q134 0 227 92t93 226t-93 233q-95 97 -230 97q-67 0 -121 -26q-110 -52 -154 -176q-21 -60 -21 -126zM1484 76q0 -43 -27 -59q-17 -17 -53 -17h-202q-38 0 -52 18t-30 61l-29 77q-81 -81 -127 -112q-98 -68 -190 -68q-277 0 -473 196
q-195 198 -195 477q0 143 52 265q108 253 355 355q122 52 261 52q203 0 355 -217l40 124q21 54 33 66t49 12h153q36 0 53 -18q27 -21 27 -58v-68q176 159 421 159q164 0 311 -85q146 -85 233 -226q87 -142 87 -303q0 -53 -2 -87q-3 -68 -63 -82q-33 -8 -97 -8h-738
q18 -118 105 -173t191 -55t210 58q30 17 55 40t48 22q23 0 57 -36l108 -123q18 -21 18 -51t-38 -56q-193 -178 -452 -177t-454 176v-79zM2125 895q-84 114 -212 114t-222 -119q-26 -34 -42 -69h523q-22 40 -47 74zM1239 1424q-27 0 -27 28q0 20 9 47l53 211q9 43 54 43h264
q57 0 27 -65l-100 -221q-22 -41 -56 -43h-224z" />
    <glyph glyph-name="Oslashacute" unicode="&#x1fe;" horiz-adv-x="1762" 
d="M758 1689q-27 0 -27 19t1 22l61 244q9 43 54 43h264q41 0 36.5 -27t-9.5 -38l-101 -220q-22 -43 -55 -43h-224zM860 1543q92 0 166 -14l33 73q20 45 65 45h284q20 0 36 -8.5t16 -21.5t-2 -15l-101 -224q217 -170 260 -347t43 -279t-28 -201.5t-105.5 -231t-257.5 -237
t-392 -105.5q-78 0 -152 16l-36 -81q-11 -26 -21.5 -35.5t-31.5 -9.5h-307q-42 0 -42 27l4 18l104 230q-214 164 -257.5 343t-43.5 281t28 201.5t79 187t122 159t158 122.5t187 79t192 28zM877 355q167 0 277.5 116.5t110.5 287.5t-109.5 289t-278.5 118t-278.5 -118.5
t-109.5 -288.5q0 -171 110.5 -287.5t277.5 -116.5z" />
    <glyph glyph-name="oslashacute" unicode="&#x1ff;" horiz-adv-x="1555" 
d="M608 1424q-26 0 -26 19.5t1 22.5l60 244q9 43 54 43h265q40 0 35.5 -27t-9.5 -38l-100 -221q-22 -43 -55 -43h-225zM810 -24q-64 0 -128 8l-24 -53q-11 -26 -21 -35.5t-32 -9.5h-307q-42 0 -42 27l4 18l89 199q-241 202 -241 519q0 282 195 477t478 195q51 0 103 -8
l22 49q20 45 66 45h283q53 0 53 -32q0 -11 -2 -13l-91 -199q110 -92 173.5 -224t63.5 -303t-113.5 -366.5t-289 -244.5t-239.5 -49zM481 648q0 -137 82 -228.5t214 -91.5t211 91t79 229t-79 233t-211 95t-214 -95.5t-82 -232.5z" />
    <glyph glyph-name="Scommaaccent" unicode="&#x218;" horiz-adv-x="1343" 
d="M674 331q181 0 181 144q0 30 -32 63t-97 59q-65 25 -140 51t-167 76q-277 149 -277 408q0 191 148 306t407 115t457 -173q51 -42 51 -67t-26 -53l-157 -167q-30 -30 -61 -10q-9 6 -32 26q-125 109 -228 106q-164 0 -164 -104q0 -76 128 -122q42 -15 125 -43
q230 -76 332 -160q140 -113 141 -323t-169 -346t-411 -136q-242 0 -458 154q-30 22 -73 66q-44 44 -60 59q-33 31 8 71l178 169q22 15 35 15q13 1 37 -19q22 -20 50 -44q138 -121 274 -121zM489 -259q0 17 11 29t30 11h242q15 0 29 -11t14 -29v-263q-1 -87 -45 -163
t-128 -125q-1 -1 -17 -1t-29 11l-62 54q-18 14 -18 28t12 26t40 38q28 28 28 71v40q0 15 -16 20h-53q-38 1 -38 40v224z" />
    <glyph glyph-name="scommaaccent" unicode="&#x219;" horiz-adv-x="1185" 
d="M522 305q175 0 175 85q0 52 -44 74q-23 12 -53 21t-70 22q-335 90 -394 304q-18 67 -18 145q0 165 129 268t344 103q126 0 227 -44t198 -146q36 -43 -4 -76q-90 -74 -153 -136q-43 -35 -83 10q-66 73 -176 73t-104 -71q4 -60 109 -80q104 -20 207 -66q103 -47 159 -97
q117 -106 118 -300t-149 -307q-150 -114 -371 -114q-222 0 -380 113q-55 39 -88 82t-32 76q2 32 24 49l132 132q25 20 43 14q18 -7 48 -35q49 -48 113 -73q65 -26 93 -26zM408 -230q0 38 41 40h241q15 0 29 -11t14 -29v-264q-1 -86 -45 -162t-128 -125q-1 -1 -17 -1t-29 11
l-62 53q-18 14 -18 29q0 14 25 37q55 50 55 98v40q0 15 -16 19h-53q-38 1 -37 40v225z" />
    <glyph glyph-name="uni021A" unicode="&#x21a;" horiz-adv-x="1297" 
d="M69 1476q0 43 48 45h1103q43 0 49 -45v-255q0 -17 -13 -35t-36 -18h-354v-1120q0 -18 -13 -33t-35 -15h-301q-17 0 -33 14q-15 14 -15 34v1120h-352q-21 0 -35 14t-13 39v255z" />
    <glyph glyph-name="uni021B" unicode="&#x21b;" horiz-adv-x="879" 
d="M512 0h-231q-79 0 -79 79l-1 823h-75q-79 0 -79 83v198q0 78 79 78h75l1 242q0 32 21 48t60 30l232 81q5 1 10 1h9q38 0 50 -22t13 -58l-1 -322h171q72 0 74 -78v-198q-1 -43 -21 -63t-53 -20h-171l1 -823q0 -79 -85 -79z" />
    <glyph glyph-name="circumflex" unicode="&#x2c6;" horiz-adv-x="765" 
d="M383 1853q9 0 21 -9l264 -262q8 -6 8 -19t-9 -24l-90 -92q-11 -11 -26 -11t-25 9l-142 145l-145 -146q-21 -21 -45 3l-93 89q-7 7 -8 21t8 24l260 263q13 9 22 9z" />
    <glyph glyph-name="caron" unicode="&#x2c7;" horiz-adv-x="758" 
d="M384 1337q-8 0 -20 10l-264 262q-8 7 -8 19t9 24l90 92q11 11 26 11t25 -9l142 -145l145 146q21 21 45 -3l93 -89q6 -6 8 -21t-8 -24l-260 -263q-14 -10 -23 -10z" />
    <glyph glyph-name="uni02C9" unicode="&#x2c9;" horiz-adv-x="1004" 
 />
    <glyph glyph-name="breve" unicode="&#x2d8;" horiz-adv-x="668" 
d="M579 1742q38 0 38 -44q0 -95 -83.5 -172t-201.5 -77q-119 0 -201 78t-82 177q0 17 12 27.5t27 10.5h148q23 0 23 -24t18.5 -42t55.5 -18t56 20t19 42t21 22h150z" />
    <glyph glyph-name="dotaccent" unicode="&#x2d9;" horiz-adv-x="556" 
d="M141 1454q0 43 43 43h201q14 0 28 -11t14 -32v-193q0 -18 -12 -34.5t-30 -16.5h-201q-43 0 -43 51v193z" />
    <glyph glyph-name="ring" unicode="&#x2da;" horiz-adv-x="785" 
d="M384 1671q-27 0 -43 -17.5t-16 -44t16 -43t43 -16.5t44 16.5t17 43t-17 44t-44 17.5zM599 1609q0 -89 -62.5 -151.5t-153.5 -62.5t-152.5 62.5t-61.5 151.5t61.5 152.5t151.5 63.5t153.5 -63.5t63.5 -152.5z" />
    <glyph glyph-name="ogonek" unicode="&#x2db;" horiz-adv-x="528" 
d="M507 -50q0 -29 -15.5 -51.5t-38.5 -41t-49.5 -34.5t-65 -42t-38.5 -63q0 -65 175 -108q11 -6 11 -19q0 -28 -40.5 -99t-66.5 -71h-5q-153 47 -250 134.5t-97 171.5t86.5 135.5t106 68.5t19.5 35t-23 34h270q21 -21 21 -50z" />
    <glyph glyph-name="tilde" unicode="&#x2dc;" horiz-adv-x="902" 
d="M511 1710q43 -27 53.5 -31.5t34.5 -4.5t52 31l34 41q18 27 40 5l105 -92q11 -11 15 -19.5t-6 -21.5l-31 -40q-41 -56 -101.5 -88t-131.5 -32t-156 51l-57 36q-25 16 -53 16t-54 -30l-32 -41q-6 -10 -21.5 -11.5t-24.5 7.5l-105 89q-13 13 -13 19t0.5 9t4.5 9t11 17t23 33
t43 45t74 47t119 24t177 -68z" />
    <glyph glyph-name="hungarumlaut" unicode="&#x2dd;" horiz-adv-x="1055" 
d="M719 1743h217q55 0 22 -66l-90 -210q-22 -43 -55 -43h-224q-27 0 -27 23t9 38l94 215q19 43 54 43zM256 1743h217q44 0 36 -27t-13 -39l-90 -210q-22 -43 -56 -43h-224q-27 0 -27 24t10 37l93 215q19 43 54 43z" />
    <glyph glyph-name="uni037E" unicode="&#x37e;" horiz-adv-x="540" 
 />
    <glyph glyph-name="tonos" unicode="&#x384;" horiz-adv-x="529" 
d="M153 1523h226q18 0 30 -12t8 -31l-31 -295q-2 -17 -15 -31t-30 -14h-143q-47 5 -47 45l-34 302q-2 15 8 25.5t28 10.5z" />
    <glyph glyph-name="dieresistonos" unicode="&#x385;" horiz-adv-x="880" 
 />
    <glyph glyph-name="Alphatonos" unicode="&#x386;" horiz-adv-x="1569" 
d="M786 1042q-39 -107 -74 -221t-83 -247h314zM655 1521h263q22 0 48 -30l25 -58l538 -1387q8 -20 -3 -33t-39 -13h-294q-43 0 -59 45q-42 113 -76 201h-544q-19 -52 -39 -104q-21 -52 -37 -97t-55 -45h-302q-19 0 -32 10t-5 31l556 1440q3 21 38 36q9 4 17 4zM356 1525
q18 0 30 -12t8 -31l-30 -295q-2 -17 -15 -31t-31 -14h-143q-47 5 -47 45l-34 302q-2 15 8 25t28 11h226z" />
    <glyph glyph-name="anoteleia" unicode="&#x387;" horiz-adv-x="465" 
 />
    <glyph glyph-name="Epsilontonos" unicode="&#x388;" horiz-adv-x="1641" 
d="M466 0q-45 0 -45 44v1430q0 47 45 47h1017q47 0 47 -50v-253q0 -18 -12 -34t-36 -16h-664v-253h512q45 0 45 -39v-222q0 -14 -11 -27t-33 -14h-513v-261h688q46 0 46 -47v-258q0 -10 -8 -18q-4 -29 -42 -29h-1036zM269 1523q19 0 31 -12t7 -31l-31 -295q-2 -17 -14 -31
t-31 -14h-143q-47 5 -47 45l-34 302q-2 15 8 25t28 11h226z" />
    <glyph glyph-name="Etatonos" unicode="&#x389;" horiz-adv-x="1827" 
d="M753 45q0 -45 -52 -45h-301q-43 0 -44 40v1436q1 17 13 31t31 14h305q15 0 31 -13t17 -32v-486h509v486q0 18 12 31q13 13 34 14h300q51 0 51 -43v-1433q0 -45 -48 -45h-303q-48 0 -46 45v582h-509v-582zM231 1525q19 0 31 -12t7 -31l-30 -295q-2 -17 -15 -31t-30 -14
h-144q-47 5 -47 45l-34 302q-2 15 8 25t28 11h226z" />
    <glyph glyph-name="Iotatonos" unicode="&#x38a;" 
d="M169 1476q0 43 45 45h301q15 -1 33 -13t17 -32v-1431q0 -45 -50 -45h-301q-45 0 -45 45v1431zM249 2103h226q18 1 30 -11t8 -32l-31 -295q-2 -17 -15 -31t-30 -14h-143q-47 5 -47 45l-34 302q-2 15 8 25t28 11z" />
    <glyph glyph-name="Omicrontonos" unicode="&#x38c;" horiz-adv-x="1833" 
d="M160 759q0 109 28 209q56 203 199 346q144 144 347 201q100 28 208 28t208 -28q199 -56 344 -200q146 -145 203 -348q28 -101 28 -209q0 -214 -105 -392t-285 -283q-180 -106 -393 -106q-212 0 -391 105t-285 282q-106 181 -106 395zM555 761q0 -172 109 -288t278 -117
q168 -1 279 117t110 288t-112 288q-111 119 -278 118t-277 -118q-109 -116 -109 -288zM214 1525q18 0 30 -12t8 -31l-31 -295q-2 -17 -15 -31t-30 -14h-143q-47 5 -47 45l-34 302q-2 15 8 25t28 11h226z" />
    <glyph glyph-name="Upsilontonos" unicode="&#x38e;" horiz-adv-x="1443" 
d="M25 1507q0 14 15 14h394q7 -2 15 -4t24 -28l250 -530l248 530q14 29 27 29q5 1 11 3h394q7 0 16 -9t-14 -32l-485 -859v-573q0 -48 -48 -48h-307q-41 0 -43 48v575l-484 857q-13 13 -13 27zM560 2043h226q18 0 30 -12t8 -31l-30 -295q-2 -17 -15 -31t-30 -14h-144
q-47 5 -47 45l-34 302q-2 15 8 25t28 11z" />
    <glyph glyph-name="Alpha" unicode="&#x391;" horiz-adv-x="1567" 
d="M786 1042q-39 -107 -74 -221t-83 -247h314zM655 1521h263q22 0 48 -30l25 -58l538 -1387q8 -20 -3 -33t-39 -13h-294q-43 0 -59 45q-42 113 -76 201h-544q-19 -52 -39 -104q-21 -52 -37 -97t-55 -45h-302q-19 0 -32 10t-5 31l556 1440q3 21 38 36q9 4 17 4z" />
    <glyph glyph-name="Beta" unicode="&#x392;" horiz-adv-x="1443" 
d="M935 1054q0 115 -92 153q-29 12 -63 12h-219v-297h216q71 0 114 42q44 42 44 90zM831 646h-270v-342h270q68 0 113 51t45 118t-46 120t-112 53zM209 0q-45 0 -45 44v1430q0 47 45 47h680q181 0 310 -129t129 -297t-92 -277q74 -68 117 -161t43 -191q0 -191 -133 -329
q-133 -137 -314 -137h-740z" />
    <glyph glyph-name="Gamma" unicode="&#x393;" horiz-adv-x="1207" 
d="M129 45v1432q0 45 45 45h915q21 -2 33 -16t12 -31v-270q0 -22 -14 -34t-31 -12h-564v-1114q-1 -21 -15 -33t-32 -12h-303q-22 0 -34 14t-12 31z" />
    <glyph glyph-name="Delta" unicode="&#x394;" horiz-adv-x="1567" 
d="M543 321h461q-58 175 -112.5 345.5t-117.5 345.5zM648 1521h253q45 0 78 -100l528 -1375v-3q1 -3 1 -11q0 -32 -43 -32h-1386q-38 0 -38 29l3 17l525 1375q20 51 37 78q10 22 42 22z" />
    <glyph glyph-name="Epsilon" unicode="&#x395;" horiz-adv-x="1382" 
d="M210 0q-45 0 -45 44v1430q0 47 45 47h1017q47 0 47 -50v-253q0 -18 -12 -34t-36 -16h-664v-253h512q45 0 45 -39v-222q0 -14 -11 -27t-33 -14h-513v-261h688q46 0 46 -47v-258q0 -10 -8 -18q-4 -29 -42 -29h-1036z" />
    <glyph glyph-name="Zeta" unicode="&#x396;" horiz-adv-x="1486" 
d="M159 1168q-50 0 -48 51v257q0 43 48 45h1189q19 1 33 -11t14 -34v-207q0 -18 -6 -34l-742 -884h704q44 0 46 -46v-255q0 -18 -13 -34t-33 -16h-1189q-20 0 -35 13q-14 13 -13 37v220q0 16 7 27l739 871h-701z" />
    <glyph glyph-name="Eta" unicode="&#x397;" horiz-adv-x="1640" 
d="M565 45q0 -45 -51 -45h-301q-43 0 -44 40v1436q1 17 13 31t31 14h304q15 0 31 -13t17 -32v-486h509v486q0 18 13 31t33 14h300q51 0 51 -43v-1433q0 -45 -48 -45h-303q-46 0 -46 45v582h-509v-582z" />
    <glyph glyph-name="Theta" unicode="&#x398;" horiz-adv-x="1759" 
d="M94 758.5q0 108.5 28 208.5t105.5 233t257 238t391.5 105q213 0 393.5 -105.5t285.5 -286t105 -448t-187.5 -455t-338 -229.5t-258.5 -42t-208 28t-187 79t-158 122.5t-122 158t-79 186t-28 208zM469 899q-47 0 -47 -45v-188q0 -49 47 -50h44q-49 142 -2 283h-42z
M1265 758q0 -74 -23 -142h66q20 0 32.5 15.5t12.5 34.5v188q0 22 -13.5 33.5t-31.5 11.5h-65q22 -67 22 -141z" />
    <glyph glyph-name="Iota" unicode="&#x399;" 
d="M169 1476q0 43 45 45h301q15 -1 33 -13t17 -32v-1431q0 -45 -50 -45h-301q-45 0 -45 45v1431z" />
    <glyph glyph-name="Kappa" unicode="&#x39a;" horiz-adv-x="1565" 
d="M163 1476q0 18 12 31t33 14h303q15 -1 32 -13t17 -32v-558q219 280 437 565q25 39 65 39h389q25 0 25 -13t-12 -27l-482 -636l534 -803q11 -17 11 -30t-23 -13h-387q-39 0 -62 38q-98 134 -206 307q-108 174 -159 249l-130 -150v-399q0 -45 -49 -45h-302q-46 0 -46 45
v1431z" />
    <glyph glyph-name="Lambda" unicode="&#x39b;" horiz-adv-x="1567" 
d="M1470 0h-329q-39 0 -53 39l-313 932q-49 -136 -149 -446t-163 -486q-14 -39 -56 -39h-323q-43 0 -43 32q0 8 1 11v3l528 1375q25 69 44 84t34 16h253q32 0 42 -22q19 -32 37 -78l525 -1375l3 -17q0 -29 -38 -29z" />
    <glyph glyph-name="Mu" unicode="&#x39c;" horiz-adv-x="1888" 
d="M627 1521q38 0 49 -39l278 -930l281 930q14 39 52 39h350q17 0 33 -13t18 -32q36 -360 73 -716t73 -715v-5q0 -40 -45 -40h-290q-47 0 -49 45l-89 792l-231 -797q-2 -10 -14 -25q-13 -14 -25 -14h-270q-12 0 -26 14t-15 25l-230 795l-89 -790q-2 -45 -50 -45h-290
q-44 0 -44 45l146 1431q5 43 49 45h355z" />
    <glyph glyph-name="Nu" unicode="&#x39d;" horiz-adv-x="1678" 
d="M1509 40q0 -40 -46 -40h-326q-22 0 -45 34q-41 68 -540 891v-880q0 -23 -10 -34t-37 -11h-291q-45 0 -45 44v1432q0 43 45 45h335q35 0 56 -32q130 -210 258 -414t259 -413v820q8 37 45 39h292q22 0 36 -12t14 -33v-1436z" />
    <glyph glyph-name="Xi" unicode="&#x39e;" horiz-adv-x="1367" 
d="M346 594q-45 0 -45 47v239q0 47 45 47h664q18 0 31.5 -11t13.5 -36v-239q0 -47 -45 -47h-664zM151 0q-45 0 -46 45v269q0 48 48 48h1050q47 0 47 -48v-269q0 -45 -45 -45h-1054zM1205 1521q45 0 45 -45v-270q0 -48 -47 -48h-1050q-47 0 -48 48v270q0 45 46 45h1054z" />
    <glyph glyph-name="Omicron" unicode="&#x39f;" horiz-adv-x="1745" 
d="M94 759q0 109 28 209q57 202 200 346t346 201q100 28 208 28q211 0 396 -107q274 -160 360 -469q28 -101 28 -209q0 -214 -105 -392t-285 -283q-180 -106 -394 -106q-213 0 -392 105q-180 105 -285 285t-105 392zM489 760q0 -172 110 -288q110 -115 278 -116t278 116
t110 286q0 170 -109 290q-113 120 -280 119t-277 -118t-110 -289z" />
    <glyph glyph-name="Pi" unicode="&#x3a0;" horiz-adv-x="1474" 
d="M935 1158h-378v-1115q0 -43 -48 -43h-310q-45 0 -45 43v1431q0 47 45 47h1091q17 0 32.5 -12.5t15.5 -32.5v-1431q0 -45 -48 -45h-310q-45 0 -45 45v1113z" />
    <glyph glyph-name="Rho" unicode="&#x3a1;" horiz-adv-x="1361" 
d="M759 854q71 0 127 66q30 36 30 86q0 125 -91 175q-29 15 -66 15h-217v-342h217zM190 0q-43 0 -45 44v1430q0 47 45 47h655q203 0 338 -152t135 -347q0 -194 -131 -340q-131 -147 -335 -151h-310v-487q0 -44 -47 -44h-305z" />
    <glyph glyph-name="Sigma" unicode="&#x3a3;" horiz-adv-x="1310" 
d="M128 0q-45 0 -45 44v243l387 472l-387 481v234q0 47 45 47h1017q47 0 47 -50v-253q0 -17 -12.5 -33.5t-35.5 -16.5h-592l325 -407l-325 -409h616q46 0 46 -47v-258q0 -10 -8 -18q-4 -29 -42 -29h-1036z" />
    <glyph glyph-name="Tau" unicode="&#x3a4;" horiz-adv-x="1363" 
d="M82 1476q0 20 14 32t34 13h1103q19 1 33 -11t16 -34v-255q0 -17 -13 -35t-36 -18h-353v-1120q0 -18 -14 -33t-35 -15h-301q-17 0 -32 14t-16 34v1120h-352q-20 0 -34 14t-14 39v255z" />
    <glyph glyph-name="Upsilon" unicode="&#x3a5;" horiz-adv-x="1443" 
d="M25 1507q0 14 15 14h394q7 -2 15 -4t24 -28l250 -530l248 530q14 29 27 29q5 1 11 3h394q7 0 16 -9t-14 -32l-485 -859v-573q0 -48 -48 -48h-307q-41 0 -43 48v575l-484 857q-13 13 -13 27z" />
    <glyph glyph-name="Phi" unicode="&#x3a6;" horiz-adv-x="1732" 
d="M412 729q0 -124 69 -213t193 -125v686q-115 -37 -188.5 -130.5t-73.5 -217.5zM1162.5 953.5q-72.5 93.5 -191.5 127.5v-690q121 34 192.5 124.5t71.5 217.5t-72.5 220.5zM267.5 1146.5q154.5 175.5 406.5 217.5v20q0 36 24 62.5t76 26.5h94q64 0 83.5 -34.5t19.5 -54.5
v-20q242 -53 403.5 -228t161.5 -409t-157 -408.5t-408 -212.5v-18q0 -88 -103 -88h-94q-52 0 -76 21t-24 67v21q-239 54 -400 229.5t-161 403.5q0 229 154.5 404.5z" />
    <glyph glyph-name="Chi" unicode="&#x3a7;" horiz-adv-x="1374" 
d="M35 0q-21 0 -21 17t39 73l461 688q-468 702 -474 712t-6 19q2 7 12 7t20 6h356q38 0 59 -39l251 -377l254 377q22 39 60 39h340q44 0 46 -14q0 -12 -12 -26l-471 -704l481 -717q22 -31 20 -46q0 -15 -18 -15h-367q-37 0 -54 38l-279 413l-275 -413q-18 -38 -55 -38h-367z
" />
    <glyph glyph-name="Iotadieresis" unicode="&#x3aa;" 
d="M169 1476q0 43 45 45h301q15 -1 33 -13t17 -32v-1431q0 -45 -50 -45h-301q-45 0 -45 45v1431zM427 2245q0 43 45 43h198q43 0 43 -43v-194q1 -18 -11 -34t-32 -16h-198q-45 0 -45 50v194zM-19 2245q0 43 43 43h200q14 0 28 -12t14 -31v-194q0 -18 -12 -34t-30 -16h-200
q-43 0 -43 50v194z" />
    <glyph glyph-name="Upsilondieresis" unicode="&#x3ab;" horiz-adv-x="1443" 
d="M25 1507q0 14 15 14h394q7 -2 15 -4t24 -28l250 -530l248 530q14 29 27 29q5 1 11 3h394q7 0 16 -9t-14 -32l-485 -859v-573q0 -48 -48 -48h-307q-41 0 -43 48v575l-484 857q-13 13 -13 27zM787 2244q0 43 46 43h197q43 0 43 -43v-194q0 -18 -11 -34t-32 -16h-197
q-45 0 -46 50v194zM341 2244q0 43 43 43h201q14 1 28 -11t14 -32v-194q0 -18 -12 -34t-30 -16h-201q-43 0 -43 50v194z" />
    <glyph glyph-name="alphatonos" unicode="&#x3ac;" horiz-adv-x="1606" 
d="M475 648q0 -138 83 -229t216 -91q134 0 227 92t93 226t-93 233q-95 97 -230 97q-67 0 -121 -26q-110 -52 -154 -176q-21 -60 -21 -126zM1251 1306h153q36 0 53 -18q27 -21 27 -58v-1154q0 -43 -27 -59q-17 -17 -53 -17h-202q-38 0 -52 18t-30 61l-29 77
q-81 -81 -127 -112q-98 -68 -190 -68q-277 0 -473 196q-195 198 -195 477q0 143 52 265q102 239 331 345l-25 228q-2 15 8 25t28 11h226q18 0 30 -12t8 -31l-17 -160q13 0 27 1q203 0 355 -217l40 124q21 54 33 66t49 12z" />
    <glyph glyph-name="alpha" unicode="&#x3b1;" horiz-adv-x="1606" 
d="M475 648q0 -138 83 -229t216 -91q134 0 227 92t93 226t-93 233q-95 97 -230 97q-67 0 -121 -26q-110 -52 -154 -176q-21 -60 -21 -126zM774 1321q203 0 355 -217l40 124q21 54 33 66t49 12h153q36 0 53 -18q27 -21 27 -58v-1154q0 -43 -27 -59q-17 -17 -53 -17h-202
q-38 0 -52 18t-30 61l-29 77q-81 -81 -127 -112q-98 -68 -190 -68q-277 0 -473 196q-195 198 -195 477q0 143 52 265q108 253 355 355q122 52 261 52z" />
    <glyph glyph-name="Wgrave" unicode="&#x1e80;" horiz-adv-x="2207" 
d="M57 1521h330q39 0 53 -39l314 -933l289 933q14 39 57 39h333q43 0 43 -32q0 -8 -1 -11v-3l-183 -523l138 -402l331 932q14 39 57 39h322q43 0 43 -32q0 -8 -1 -11v-3q-99 -254 -290 -723t-284 -713q-4 -11 -18 -25t-36 -14h-250q-41 0 -52 32l-161 426q-35 -93 -69 -183
q-34 -89 -54 -143q-29 -81 -45 -107q-16 -25 -44 -25h-251q-33 0 -43 22q-10 17 -20 35q-9 17 -79 201t-265 695q-196 511 -202 539q0 29 38 29zM1313 1674q0 -27 -27 -27h-224q-33 0 -55 43l-101 220q-18 40 4 59q8 6 23 6h264q45 0 54 -43l54 -211q2 -9 5 -22t3 -25z" />
    <glyph glyph-name="wgrave" unicode="&#x1e81;" horiz-adv-x="1972" 
d="M356 1300q59 0 75 -54q17 -54 39 -122q22 -67 44 -137q63 -192 94 -286t48 -141l217 685q13 33 31 44t47 11h243q96 0 57 -88l-112 -275q17 -40 79 -163t94 -209l251 680q13 33 27 44t41 11h227q49 0 67 -18t2 -70l-480 -1168q-22 -44 -83 -44h-108q-60 0 -88 46
l-190 465l-187 -467q-27 -44 -73 -44h-122q-65 0 -83 44l-472 1155q-20 42 -8 72q13 30 61 29h262zM1142 1452q0 -26 -27 -28h-224q-32 0 -55 43l-101 221q-18 40 4 59q8 6 23 6h264q45 0 54 -43l54 -211q2 -9 5 -22t3 -25z" />
    <glyph glyph-name="Wacute" unicode="&#x1e82;" horiz-adv-x="2207" 
d="M57 1521h330q39 0 53 -39l314 -933l289 933q14 39 57 39h333q43 0 43 -32q0 -8 -1 -11v-3l-183 -523l138 -402l331 932q14 39 57 39h322q43 0 43 -32q0 -8 -1 -11v-3q-99 -254 -290 -723t-284 -713q-4 -11 -18 -25t-36 -14h-250q-41 0 -52 32l-161 426q-35 -93 -69 -183
q-34 -89 -54 -143q-29 -81 -45 -107q-16 -25 -44 -25h-251q-33 0 -43 22q-10 17 -20 35q-9 17 -79 201t-265 695q-196 511 -202 539q0 29 38 29zM1110 1647q-27 0 -27 27q0 20 9 47l53 211q10 46 54 43h264q57 0 27 -65l-100 -220q-22 -43 -56 -43h-224z" />
    <glyph glyph-name="wacute" unicode="&#x1e83;" horiz-adv-x="1972" 
d="M356 1300q59 0 75 -54q17 -54 39 -122q22 -67 44 -137q63 -192 94 -286t48 -141l217 685q13 33 31 44t47 11h243q96 0 57 -88l-112 -275q17 -40 79 -163t94 -209l251 680q13 33 27 44t41 11h227q49 0 67 -18t2 -70l-480 -1168q-22 -44 -83 -44h-108q-60 0 -88 46
l-190 465l-187 -467q-27 -44 -73 -44h-122q-65 0 -83 44l-472 1155q-20 42 -8 72q13 30 61 29h262zM939 1424q-27 0 -27 28q0 20 9 47l53 211q9 43 54 43h264q57 0 27 -65l-100 -221q-21 -41 -56 -43h-224z" />
    <glyph glyph-name="Wdieresis" unicode="&#x1e84;" horiz-adv-x="2207" 
d="M57 1521h330q39 0 53 -39l314 -933l289 933q14 39 57 39h333q43 0 43 -32q0 -8 -1 -11v-3l-183 -523l138 -402l331 932q14 39 57 39h322q43 0 43 -32q0 -8 -1 -11v-3q-99 -254 -290 -723t-284 -713q-4 -11 -18 -25t-36 -14h-250q-41 0 -52 32l-161 426q-35 -93 -69 -183
q-34 -89 -54 -143q-29 -81 -45 -107q-16 -25 -44 -25h-251q-33 0 -43 22q-10 17 -20 35q-9 17 -79 201t-265 695q-196 511 -202 539q0 29 38 29zM1189 1930q0 43 45 43h198q43 0 43 -43v-193q1 -19 -11 -35t-32 -15h-198q-45 0 -45 50v193zM742 1930q0 43 43 43h201
q14 0 28 -11t14 -32v-193q0 -19 -12 -35t-30 -15h-201q-43 0 -43 50v193z" />
    <glyph glyph-name="wdieresis" unicode="&#x1e85;" horiz-adv-x="1972" 
d="M356 1300q59 0 75 -54q17 -54 39 -122q22 -67 44 -137q63 -192 94 -286t48 -141l217 685q13 33 31 44t47 11h243q96 0 57 -88l-112 -275q17 -40 79 -163t94 -209l251 680q13 33 27 44t41 11h227q49 0 67 -18t2 -70l-480 -1168q-22 -44 -83 -44h-108q-60 0 -88 46
l-190 465l-187 -467q-27 -44 -73 -44h-122q-65 0 -83 44l-472 1155q-20 42 -8 72q13 30 61 29h262zM1065 1712q0 43 45 43h198q43 0 43 -43v-193q1 -19 -11 -35t-32 -16h-198q-45 0 -45 51v193zM618 1712q0 43 44 43h200q14 0 28 -11t14 -32v-193q0 -19 -12 -35t-30 -16
h-200q-43 0 -44 51v193z" />
    <glyph glyph-name="Ygrave" unicode="&#x1ef2;" horiz-adv-x="1443" 
d="M25 1507q0 14 15 14h394q7 -2 15 -4t24 -28l250 -530l248 530q14 29 27 29q5 1 11 3h394q7 0 16 -9t-14 -32l-485 -859v-573q0 -48 -48 -48h-307q-41 0 -43 48v575l-484 857q-13 13 -13 27zM874 1674q0 -27 -26 -27h-224q-34 0 -56 43l-100 220q-19 42 4 59q8 6 23 6h264
q45 0 54 -43l53 -211q2 -9 5 -22t3 -25z" />
    <glyph glyph-name="ygrave" unicode="&#x1ef3;" horiz-adv-x="1453" 
d="M442 -513q-80 0 -80 60q0 30 10 40l160 418l-488 1197q-16 41 0 70t70 30h253q47 0 66 -56l290 -824l284 824q11 33 28 44t48 12h264q97 0 64 -89q-289 -712 -360 -892q-70 -180 -115 -293t-82 -208q-38 -94 -66 -166t-42 -111l4 5q-15 -61 -71 -61h-237zM858 1452
q0 -26 -27 -28h-224q-32 0 -55 43l-100 221q-18 41 3 59q8 6 23 6h264q46 0 55 -43l53 -211q2 -9 5 -22t3 -25z" />
    <glyph glyph-name="figuredash" unicode="&#x2012;" horiz-adv-x="1126" 
d="M895 869q18 0 31.5 -11.5t13.5 -33.5v-198q0 -18 -12.5 -32.5t-32.5 -14.5h-665q-48 0 -48 47v198q0 45 48 45h665z" />
    <glyph glyph-name="endash" unicode="&#x2013;" horiz-adv-x="1374" 
d="M171 719q0 45 45 45h944q18 0 31.5 -11.5t13.5 -33.5v-180q0 -15 -12 -32.5t-33 -17.5h-944q-45 0 -45 50v180z" />
    <glyph glyph-name="emdash" unicode="&#x2014;" horiz-adv-x="1712" 
d="M171 719q0 45 45 45h1282q18 0 31.5 -11.5t13.5 -33.5v-180q0 -15 -12 -32.5t-33 -17.5h-1282q-45 0 -45 50v180z" />
    <glyph glyph-name="quoteleft" unicode="&#x2018;" horiz-adv-x="536" 
d="M404 1305q42 0 42 -45v-228q0 -45 -45 -45h-247q-17 0 -32.5 12.5t-15.5 32.5v221q0 43 5 105t49 129t124 114q4 4 24 8t27 4t19 -15l39 -29q24 -17 24 -33t-44.5 -62t-44.5 -103v-45q0 -18 18 -21h58z" />
    <glyph glyph-name="quoteright" unicode="&#x2019;" horiz-adv-x="571" 
d="M169 1204q-42 0 -42 45v228q0 45 45 45h248q17 0 32 -12.5t15 -32.5v-222q-1 -43 -5 -105t-48 -129t-124 -113q-3 -3 -23.5 -7.5t-26.5 -4.5t-21 14l-39 30q-23 16 -23 33q0 16 13.5 30.5t44.5 50t31 84.5v45q0 18 -19 21h-58z" />
    <glyph glyph-name="quotesinglbase" unicode="&#x201a;" horiz-adv-x="587" 
d="M166 0q-42 0 -42 45v227q0 45 45 45h248q17 0 32 -12t15 -33v-221q0 -43 -4 -105t-48.5 -129t-124.5 -113q-3 -3 -24 -7.5t-27 -4.5t-20 14l-39 30q-23 16 -23 33q0 16 13.5 30.5t44.5 50t31 83.5v45q0 18 -19 22h-58z" />
    <glyph glyph-name="quotedblleft" unicode="&#x201c;" horiz-adv-x="991" 
d="M857 1302q42 0 42 -46v-227q0 -45 -45 -45h-248q-17 0 -32 12.5t-15 32.5v221q1 44 5 106t48 128.5t124 112.5q5 5 24.5 9t26.5 4t20 -15l39 -29q23 -16 23 -33q0 -16 -13.5 -30.5t-44.5 -50t-31 -84.5v-45q0 -18 19 -21h58zM402 1302q42 0 42 -46v-227q0 -45 -45 -45
h-247q-17 0 -32.5 12.5t-15.5 32.5v221q0 44 5 106t49 128.5t124 112.5q13 13 49 13q8 0 21 -15l39 -29q24 -17 24 -33t-44.5 -62t-44.5 -103v-45q0 -18 18 -21h58z" />
    <glyph glyph-name="quotedblright" unicode="&#x201d;" horiz-adv-x="1013" 
d="M611 1205q-42 0 -42 45v228q0 45 45 45h248q17 0 32 -12.5t15 -32.5v-222q-1 -44 -5 -106t-48 -128.5t-124 -112.5q-3 -3 -23.5 -7.5t-26.5 -4.5t-20 14l-39 30q-24 17 -24 33t44.5 62t44.5 103v45q0 18 -18 21h-59zM146 1205q-42 0 -42 45v228q0 45 46 45h247
q17 0 32 -12.5t15 -32.5v-222q0 -44 -4 -106t-48.5 -128.5t-124.5 -112.5q-4 -4 -24 -8t-26 -4t-20 14l-39 30q-24 17 -24 33t44.5 62t44.5 103v45q0 18 -18 21h-59z" />
    <glyph glyph-name="quotedblbase" unicode="&#x201e;" horiz-adv-x="1021" 
d="M615 0q-42 0 -42 45v227q0 20 12 32.5t33 12.5h248q17 0 32 -12t15 -33v-221q-1 -43 -5 -105t-48 -129t-124 -113q-4 -4 -24 -8t-26 -4t-20 14l-39 30q-24 17 -24 33t44.5 62t44.5 102v45q0 18 -18 22h-59zM169 0q-42 0 -42 45v227q0 45 45 45h248q17 0 32 -12t15 -33
v-221q-1 -43 -5 -105t-48 -129t-124 -113q-3 -3 -23.5 -7.5t-26.5 -4.5t-21 14l-39 30q-23 16 -23 33q0 16 13.5 30.5t44.5 50t31 83.5v45q0 18 -19 22h-58z" />
    <glyph glyph-name="dagger" unicode="&#x2020;" horiz-adv-x="874" 
d="M43 664q0 45 45 45h210v767q0 18 11.5 31.5t33.5 13.5h184q15 0 33 -12.5t18 -32.5v-767h208q18 0 31.5 -12t13.5 -33v-186q0 -15 -12 -32t-33 -17h-208v-776q0 -45 -51 -45h-184q-45 0 -45 45v776h-210q-45 0 -45 49v186z" />
    <glyph glyph-name="daggerdbl" unicode="&#x2021;" horiz-adv-x="905" 
d="M58 458q0 45 45 45h210v221h-210q-45 0 -45 49v185q0 45 45 46h210v472q0 18 11.5 31.5t33.5 13.5h185q15 0 32.5 -12.5t17.5 -32.5v-472h209q18 0 31.5 -12t13.5 -34v-185q0 -15 -12.5 -32t-32.5 -17h-209v-221h209q18 0 31.5 -12t13.5 -33v-186q0 -15 -12.5 -32
t-32.5 -17h-209v-570q0 -45 -50 -45h-185q-45 0 -45 45v570h-210q-45 0 -45 49v186z" />
    <glyph glyph-name="bullet" unicode="&#x2022;" horiz-adv-x="517" 
d="M143.5 798q52.5 51 123.5 51t123 -50.5t52 -124.5t-51 -125t-124 -51t-124.5 51.5t-51.5 124.5t52.5 124z" />
    <glyph glyph-name="onedotenleader" unicode="&#x2024;" horiz-adv-x="608" 
d="M486 47q0 -47 -47 -47h-270q-45 0 -45 47v248q0 45 45 45h270q17 0 33 -12t14 -33v-248z" />
    <glyph glyph-name="twodotenleader" unicode="&#x2025;" horiz-adv-x="1192" 
d="M697 295q0 45 45 45h271q17 0 32 -12t15 -33v-248q0 -19 -12 -33t-35 -14h-271q-45 0 -45 47v248zM175 295q0 45 45 45h270q16 0 32 -12t16 -33v-248q0 -19 -12 -33t-36 -14h-270q-45 0 -45 47v248z" />
    <glyph glyph-name="ellipsis" unicode="&#x2026;" horiz-adv-x="1496" 
d="M1049 295q0 45 45 45h270q17 0 32 -12.5t15 -32.5v-248q0 -18 -11.5 -32.5t-35.5 -14.5h-270q-45 0 -45 47v248zM567 295q0 45 45 45h271q17 0 32.5 -12.5t15.5 -32.5v-248q0 -18 -12.5 -32.5t-35.5 -14.5h-271q-45 0 -45 47v248zM86 295q0 20 12 32.5t33 12.5h270
q17 0 32.5 -12.5t15.5 -32.5v-248q0 -18 -12 -32.5t-36 -14.5h-270q-45 0 -45 47v248z" />
    <glyph glyph-name="perthousand" unicode="&#x2030;" horiz-adv-x="2800" 
d="M2234 361q0 -39 34 -73t72 -34t60.5 9t38.5 25t25 38t9 60t-34.5 72.5t-72.5 34.5t-59.5 -9t-38 -25t-25.5 -37.5t-9 -60.5zM1960 374q0 82 30.5 153.5t84 125.5t125.5 84.5t154 30.5t153.5 -30.5t125.5 -84.5t84.5 -125.5t30.5 -153.5t-30.5 -154.5t-84.5 -125.5
t-125.5 -83.5t-153.5 -30.5t-154 30.5t-125.5 83.5t-84 125.5t-30.5 154.5zM1373 361q0 -39 34.5 -73t72.5 -34t60 9t37.5 25t25 38t9.5 59t-34 72.5t-73 35.5t-60.5 -9t-37.5 -25t-25 -37.5t-9 -60.5zM1099 374q0 82 30.5 153.5t84 125.5t125.5 84.5t154 30.5t153.5 -30.5
t125.5 -84.5t84.5 -125.5t30.5 -153.5t-30.5 -154.5t-84.5 -125.5t-125.5 -83.5t-153.5 -30.5t-154 30.5t-125.5 83.5t-84 125.5t-30.5 154.5zM317 1156q0 -39 34.5 -72.5t72.5 -33.5t60 9t38 25t25 38t9 60t-34 72t-73 34t-60 -8.5t-37.5 -24.5t-25.5 -38t-9 -61z
M1174 1521h222q20 0 36 -8.5t16 -21.5t-2 -15l-647 -1431q-11 -26 -21.5 -35.5t-33.5 -9.5h-244q-43 0 -43 27l2 4l3 14l646 1431q20 45 66 45zM43 1169q0 82 30.5 154t84 125.5t125.5 84.5t154 31t154 -31t125.5 -84.5t84 -125.5t30.5 -154t-30.5 -154t-84 -125t-125.5 -84
t-154 -31t-154 31t-125.5 84t-84 125t-30.5 154z" />
    <glyph glyph-name="guilsinglleft" unicode="&#x2039;" horiz-adv-x="914" 
d="M603 65q-17 0 -30 14l-535 537q-15 14 -15 30t15 32l536 535q8 11 30 11t34 -13l147 -147q29 -34 2 -64l-352 -353l352 -354q13 -13 13 -33t-16 -35l-150 -146q-14 -14 -31 -14z" />
    <glyph glyph-name="guilsinglright" unicode="&#x203a;" horiz-adv-x="904" 
d="M873 648q0 -16 -15 -32l-535 -537q-14 -14 -30 -14t-31 14l-149 146q-36 36 -3 68l351 354l-351 353q-7 8 -14 32q6 23 16 32l145 147q13 13 35 13t30 -11l536 -535q15 -14 15 -30z" />
    <glyph glyph-name="fraction" unicode="&#x2044;" horiz-adv-x="1125" 
d="M874 1521h194q20 0 35.5 -8.5t15.5 -21.5t-2 -15l-781 -1431q-12 -26 -22 -35.5t-32 -9.5h-216q-43 0 -43 27l4 18l782 1431q20 45 65 45z" />
    <glyph glyph-name="zerosuperior" unicode="&#x2070;" horiz-adv-x="1011" 
d="M360 1124q0 -74 49.5 -125t120.5 -51t123.5 51t52.5 124.5t-51.5 126.5t-124.5 53q-72 0 -121 -52.5t-49 -126.5zM236.5 1419q121.5 122 295.5 122t296 -122t122 -296t-122 -294.5t-296 -120.5t-295.5 120.5t-121.5 294.5t121.5 296z" />
    <glyph glyph-name="foursuperior" unicode="&#x2074;" horiz-adv-x="763" 
d="M413 970v176l-101 -176h101zM664 970q50 0 50 -43v-105q0 -17 -15.5 -31t-34.5 -14h-62v-79q0 -23 -10 -33.5t-37 -10.5h-98q-44 0 -44 44v79h-326q-51 0 -51 52q0 17 12 36l370 633q17 27 39 27h103q19 0 30.5 -16t11.5 -30v-509h62z" />
    <glyph glyph-name="fivesuperior" unicode="&#x2075;" horiz-adv-x="683" 
d="M431 946q0 94 -113 94h-140q-42 0 -63.5 15t-29.5 60v359q0 47 44 47h407q47 0 47 -48v-96q0 -46 -48 -46h-262v-98h30q30 0 36 -2q161 -6 223 -88t62 -199t-92.5 -203.5t-219.5 -86.5q-126 0 -189.5 64.5t-65.5 87.5t21 40h-1l84 62q31 20 58 -7h2q35 -55 87 -55
t87.5 29t35.5 71z" />
    <glyph glyph-name="sixsuperior" unicode="&#x2076;" horiz-adv-x="691" 
d="M234 940q0 -35 27.5 -67.5t74.5 -32.5t73.5 32.5t26.5 67.5q0 62 -27.5 94.5t-61.5 32.5t-53 -9t-32 -25t-20.5 -37t-7.5 -56zM343 1520h111q42 0 42 -37q0 -9 -4 -18l-120 -216q113 -12 189.5 -96t76.5 -204q0 -121 -87 -208t-212 -87t-212 87t-87 211q0 82 46 163
l205 371v-1q20 35 52 35z" />
    <glyph glyph-name="sevensuperior" unicode="&#x2077;" horiz-adv-x="721" 
d="M83 1330q-47 0 -47 47v99q0 20 13 32t34 12h539q51 0 51 -51q0 -18 -55 -118t-157 -291.5t-199 -373.5q-14 -20 -41 -20h-135q-57 0 -39 50l321 614h-285z" />
    <glyph glyph-name="eightsuperior" unicode="&#x2078;" horiz-adv-x="708" 
d="M536 1176q100 -84 100 -216t-86.5 -218.5t-210.5 -86.5t-211 85.5t-87 218.5q0 132 100 217q-35 63 -35 117q0 103 69 172t164 69t163.5 -68.5t68.5 -152.5q0 -83 -35 -137zM236 940q0 -35 27 -67.5t74 -32.5t73.5 32.5t26.5 67.5q0 62 -27.5 94.5t-61.5 32.5t-53 -9
t-32 -25t-20 -37t-7 -56zM285 1299.5q0 -23.5 15 -39.5t38.5 -16t39.5 16t16 39.5t-16 39.5t-39.5 16t-38.5 -16t-15 -39.5z" />
    <glyph glyph-name="ninesuperior" unicode="&#x2079;" horiz-adv-x="690" 
d="M443 1244q0 36 -26.5 68.5t-74.5 32.5t-74 -31.5t-26 -79.5t26 -82t62 -34t54 9.5t31.5 24.5t20.5 35.5t7 56.5zM335 666h-111q-43 0 -43 36q-1 11 11 30t26.5 45t28 51t28 50.5t30.5 55.5q-113 12 -189 97.5t-76 205.5q0 119 87.5 206.5t211.5 87.5t211.5 -87.5
t87.5 -196.5t-49 -180l2 2l-204 -370v1q-17 -34 -52 -34z" />
    <glyph glyph-name="nsuperior" unicode="&#x207f;" horiz-adv-x="626" 
 />
    <glyph glyph-name="Euro" unicode="&#x20ac;" horiz-adv-x="1579" 
d="M963 357q135 0 240 80q33 20 55 -9l176 -252q18 -39 -23 -63q-201 -136 -448 -136t-450 147t-283 377h-99q-45 0 -45 50v113q0 45 45 45h57q-1 12 -1 15v32q0 30 1 40h-57q-45 0 -45 50v112q0 45 45 46h95q77 238 282 388.5t454 150.5t445 -133q43 -25 23 -65l-174 -246
q-21 -32 -55 -12q-104 79 -221 79q-214 0 -330 -162h221q19 0 32 -12t13 -34v-112q0 -15 -12 -32.5t-33 -17.5h-292q-1 -8 -1 -10v-25q0 -28 3 -52h290q19 0 32 -12t13 -33v-113q0 -15 -12 -32.5t-33 -17.5h-207q110 -144 299 -144z" />
    <glyph glyph-name="litre" unicode="&#x2113;" horiz-adv-x="863" 
d="M485 1014q0 40 -35 50q-43 -9 -43 -66v-126l3 2q63 72 69 97t6 43zM731.5 842q-45.5 -71 -181.5 -228l-91 -107q-48 -56 -48 -111t11 -91t46 -42h5q44 0 71 -23.5t27 -66.5v-104q0 -81 -99 -91q-145 15 -251 114t-106 252v599q0 288 126.5 342t208.5 54t141 -27
t122.5 -97.5t63.5 -185.5q0 -116 -45.5 -187z" />
    <glyph glyph-name="trademark" unicode="&#x2122;" horiz-adv-x="1400" 
d="M663 1523h159q14 0 19 -14l90 -279l92 279q4 14 20 14h155q7 0 14 -6t7 -12l29 -589q0 -17 -22 -17h-109q-17 0 -17 17l-26 323l-92 -297q-6 -16 -15 -16h-70q-9 0 -16 16l-93 297l-24 -323q0 -17 -21 -17h-110q-17 0 -18 17l29 589q0 18 19 18zM115 1505q0 18 22 18h426
q23 0 23 -18v-110q0 -20 -23 -21h-133v-454q0 -7 -5.5 -14t-11.5 -7h-122q-5 0 -13 6.5t-8 14.5v454h-133q-23 0 -22 21v110z" />
    <glyph glyph-name="estimated" unicode="&#x212e;" horiz-adv-x="1465" 
d="M958 895q-84 114 -212 114t-222 -119q-26 -34 -43 -69h524q-22 40 -47 74zM92 626q0 300 183 496q118 126 285 174q84 25 173 25q258 0 448 -184q188 -185 188 -430q1 -53 -1 -87q-3 -68 -64 -82q-33 -8 -98 -8h-737q18 -120 114 -179q77 -49 183 -49t208 58q30 16 48 32
q33 29 55 30q22 0 58 -36l108 -123q15 -18 17 -48t-37 -59q-193 -178 -442 -176q-140 0 -265 51t-219 142q-93 91 -149 213t-56 240z" />
    <glyph glyph-name="onethird" unicode="&#x2153;" horiz-adv-x="1540" 
d="M1214 1521q50 0 52 -32q0 -11 -2 -13l-782 -1431q-12 -25 -22 -35t-32 -10h-216q-43 0 -43 27l4 18l782 1431q19 43 66 45h193zM112 1289q-23 0 -23 28v121q0 22 25 36l90 45q5 4 18 4h153q27 0 26 -25v-786q0 -25 -24 -25h-155q-25 0 -24 23v622l-77 -38q-1 -3 -5 -3
t-4 -2zM1202 685q-57 0 -61 -39q-2 -22 -2 -42q0 -42 -47 -42h-95q-44 0 -44 44q0 130 67 193q67 62 171 62q103 0 177 -70q71 -71 71 -161t-43 -145q95 -70 95 -204t-80 -216t-214 -81q-133 0 -199 60q-84 75 -84 251q0 34 43 44h102q44 0 44 -44q0 -123 98 -123t101 99
q0 52 -26 73t-80 21q-56 0 -56 35v107q0 45 48 45q61 0 61 66t-47 67z" />
    <glyph glyph-name="twothirds" unicode="&#x2154;" horiz-adv-x="1738" 
d="M1432 1521q49 0 51 -32q0 -11 -2 -13l-782 -1431q-12 -25 -22 -35t-32 -10h-216q-43 0 -43 27l4 18l782 1431q19 43 66 45h194zM470 1248q0 68 -64 95q-18 8 -40 8q-67 0 -94 -64q-8 -18 -8 -39v-46q0 -43 -45 -43h-100q-24 1 -34 15t-10 28v46q0 122 86 202t207 80
q120 0 210 -76t90 -195t-89 -201v1l-213 -214h256q46 0 46 -46v-92q0 -19 -13 -33t-33 -14h-505q-18 0 -34 13q-15 13 -15 34v83q0 10 2 14q3 4 6 10l360 370h-1q35 39 35 64zM1511 251q0 53 -25 73q-24 20 -80 20t-56 36v106q0 45 45 45q31 0 48 19q16 19 16 45
q0 70 -55 70t-55 -76q-1 -25 -11 -36t-36 -11h-95q-44 0 -44 44q0 131 67 193t172 62q104 1 176 -71t71 -161q0 -89 -43 -144q95 -70 95 -204t-81 -216t-213 -82t-199 60q-84 75 -84 251q0 34 43 44h102q44 0 44 -44q0 -127 98 -122q100 0 100 99z" />
    <glyph glyph-name="oneeighth" unicode="&#x215b;" horiz-adv-x="1608" 
d="M1258 1521q50 0 52 -32q0 -11 -2 -13l-782 -1431q-12 -25 -22 -35t-32 -10h-216q-43 0 -43 27l4 18l782 1431q19 43 66 45h193zM110 1289q-23 0 -23 28v121q0 22 25 36l90 45q5 4 18 4h153q27 0 26 -25v-786q0 -25 -24 -25h-155q-25 0 -24 23v622l-77 -38q-1 -3 -5 -3
t-4 -2zM1424 490q101 -85 101 -214t-87 -220q-86 -86 -210 -86t-212 86q-86 86 -86 218t100 216q-35 64 -35 118q0 101 68 170t163 70q95 0 164 -68q70 -68 70 -152t-36 -138zM1124 255q0 -35 27 -68t75 -33t74 34q26 32 26 67q0 60 -27 93q-27 34 -62 34q-34 0 -53 -9
t-32 -25q-12 -16 -20 -37t-8 -56zM1174 614q0 -24 15 -40t39 -15q24 0 40 16q16 15 15 39q0 24 -16 40q-15 16 -39 16t-39 -16t-15 -40z" />
    <glyph glyph-name="threeeighths" unicode="&#x215c;" horiz-adv-x="1611" 
d="M1323 1521q19 -1 35 -9t16 -21t-2 -15l-781 -1431q-12 -25 -22 -35t-32 -10h-216q-43 0 -43 27l4 18l782 1431q19 43 65 45h194zM1480 490q100 -84 100 -213t-87 -221q-87 -86 -211 -86t-210 86t-87 219q0 132 100 215q-36 65 -35 118q2 102 69 171q67 68 163 69t164 -67
t69 -151t-35 -140zM1180 255q0 -35 27 -68t74 -33t81 42q34 41 13 115q-24 71 -93 71q-24 0 -42 -9q-60 -28 -60 -118zM1229 614q0 -24 15 -40t39 -15q23 0 39 16q16 15 16 39t-16 40t-40 16t-38 -16q-15 -16 -15 -40zM431 940q0 52 -25 73q-26 20 -82 20t-55 36v107
q0 45 48 45q62 1 62 67q1 66 -55 66t-56 -76q0 -25 -10 -36t-37 -11h-94q-44 0 -44 44q0 132 72 196q63 59 167 59t175 -71t71 -161t-43 -144q92 -68 96 -216q0 -122 -81 -204t-213 -82t-207 67q-76 67 -76 245q0 34 43 44h101q44 0 44 -44q0 -128 99 -123q100 0 100 99z
" />
    <glyph glyph-name="fiveeighths" unicode="&#x215d;" horiz-adv-x="1651" 
d="M1366 1521q20 -1 36 -9t15 -21q0 -13 -2 -15l-781 -1431q-12 -25 -22 -35t-32 -10h-216q-43 0 -43 27l4 18l782 1431q19 43 65 45h194zM431 946q0 96 -113 94h-140q-42 0 -64 15t-29 60v359q0 47 44 47h407q45 0 47 -48v-96q0 -46 -48 -46h-262v-98h44q16 0 22 -2
q159 -5 222 -88q63 -82 63 -200t-93 -204q-93 -85 -221 -85t-197 75q-53 53 -56 77q-2 24 21 40h-1l84 62q31 20 58 -7h2q35 -55 98 -55q35 0 75 28q37 30 37 72zM1466 490q101 -85 101 -214t-87 -220q-86 -86 -210 -86t-212 86q-86 86 -86 218t100 216q-35 64 -35 118
q0 101 68 170t163 70q95 0 164 -68q70 -68 70 -152t-36 -138zM1166 255q0 -35 27 -68t75 -33t74 34q26 32 26 67q0 60 -27 93q-27 34 -62 34q-34 0 -53 -9t-32 -25q-12 -16 -20 -37t-8 -56zM1215 614q-1 -24 15 -40t40 -15q24 0 40 16q16 15 15 39q0 24 -16 40
q-15 16 -39 16t-40 -16t-15 -40z" />
    <glyph glyph-name="seveneighths" unicode="&#x215e;" horiz-adv-x="1608" 
d="M1299 1521q50 0 52 -32q0 -11 -2 -13l-782 -1431q-12 -25 -22 -35t-32 -10h-216q-43 0 -43 27l4 18l782 1431q19 43 66 45h193zM1404 490q102 -85 101 -215t-87 -217q-86 -88 -210 -88q-123 0 -212 86q-87 87 -87 219t101 215q-35 64 -35 118q0 102 67 170q67 69 164 70
q96 1 164 -67t69 -152q1 -85 -35 -139zM1104 255q0 -35 27 -68t74 -33t74 34q27 32 27 67t-7 56q-24 71 -93 71q-68 0 -94 -71q-8 -21 -8 -56zM1153 614q0 -24 15 -40t39 -15q24 0 40 16q16 15 16 39t-16 40t-40 16t-39 -16t-15 -40zM159 1330q-47 0 -47 47v99q0 20 13 32
t34 12h538q27 0 39 -16q26 -34 0 -72q-97 -180 -199 -372t-199 -374q-14 -20 -41 -20h-135q-57 0 -39 50l320 614h-284z" />
    <glyph glyph-name="partialdiff" unicode="&#x2202;" horiz-adv-x="1146" 
 />
    <glyph glyph-name="uni2206" unicode="&#x2206;" horiz-adv-x="1567" 
d="M520 321h461q-58 175 -112.5 345.5t-116.5 345.5zM626 1521h253q44 0 77 -100l529 -1375v-3q1 -3 1 -11q0 -32 -43 -32h-1387q-38 0 -38 29l4 17l525 1375q20 51 37 78q10 22 42 22z" />
    <glyph glyph-name="product" unicode="&#x220f;" horiz-adv-x="1474" 
d="M935 1158h-378v-1115q0 -43 -48 -43h-310q-45 0 -45 43v1431q0 47 45 47h1091q17 0 32.5 -12.5t15.5 -32.5v-1431q0 -45 -48 -45h-310q-45 0 -45 45v1113z" />
    <glyph glyph-name="summation" unicode="&#x2211;" horiz-adv-x="1252" 
d="M1169 1287q0 -41 -47 -48h-598l414 -480l-410 -474h617q47 0 47 -48v-188q0 -18 -13.5 -33.5t-33.5 -15.5h-1029q-20 0 -35 14.5t-15 34.5v131q0 12 7 28l473 551l-473 554q-7 15 -7 27v131q0 20 14.5 35t35.5 15h1006q20 0 33.5 -15.5t13.5 -34.5v-184z" />
    <glyph glyph-name="minus" unicode="&#x2212;" horiz-adv-x="1126" 
d="M895 828q18 0 31.5 -11.5t13.5 -33.5v-198q0 -18 -12.5 -32.5t-32.5 -14.5h-665q-48 0 -48 47v198q0 45 48 45h665z" />
    <glyph glyph-name="uni2215" unicode="&#x2215;" horiz-adv-x="1164" 
d="M1068 1521q20 -1 36 -9t15 -21q0 -13 -2 -15l-781 -1431q-12 -25 -22 -35t-32 -10h-216q-43 0 -43 27l4 18l782 1431q19 43 65 45h194z" />
    <glyph glyph-name="uni2219" unicode="&#x2219;" horiz-adv-x="517" 
d="M143.5 798q52.5 51 123.5 51t123 -50.5t52 -124.5t-51 -125t-124 -51t-124.5 51.5t-51.5 124.5t52.5 124z" />
    <glyph glyph-name="radical" unicode="&#x221a;" horiz-adv-x="1408" 
d="M443 904q40 0 55 -38q5 -16 15.5 -54t25 -88t31.5 -109t32.5 -118t30 -113.5t24.5 -96.5q43 115 102.5 301.5t90 281.5t99.5 312t101 301q14 38 54 38h200q48 0 48 -36q0 -3 -5 -28l-586 -1712q-2 -5 -8.5 -21.5t-45.5 -16.5h-114q-38 0 -44.5 16.5t-8.5 21.5l-276 890
h-147q-47 0 -47 47v177q0 45 47 45h326z" />
    <glyph glyph-name="infinity" unicode="&#x221e;" horiz-adv-x="1321" 
d="M751 536q0 -30 10.5 -54.5t30 -43t45 -29.5t70 -11t86 40t41.5 84t-11 68.5t-30 43.5t-45 30.5t-56 11.5t-55.5 -11.5t-45 -30.5t-30 -43.5t-10.5 -54.5zM291 536q0 -30 10.5 -54.5t30 -43t45 -29.5t70 -11t86 40t41.5 84t-11 68.5t-30 43.5t-45 30.5t-56 11.5
t-55.5 -11.5t-45 -30.5t-30 -43.5t-10.5 -54.5zM205.5 752q100.5 93 223.5 93t167.5 -48.5t66.5 -66.5q23 17 69.5 66t134.5 49q153 0 252.5 -92.5t99.5 -216.5t-99.5 -216.5t-221.5 -92.5q-123 0 -168 50t-67 68q-22 -18 -63.5 -68t-135.5 -50t-152.5 24.5t-132.5 93
t-74 191.5t100.5 216z" />
    <glyph glyph-name="approxequal" unicode="&#x2248;" horiz-adv-x="567" 
 />
    <glyph glyph-name="lessequal" unicode="&#x2264;" horiz-adv-x="841" 
d="M722 241q18 0 31.5 -12t13.5 -33v-146q0 -17 -12.5 -32.5t-32.5 -15.5h-627q-46 0 -46 48v146q0 45 46 45h627zM617 1505q20 0 34 -13l97 -95q50 -53 50 -72t-30 -54q-80 -80 -160.5 -160t-160.5 -161l321 -321l27 -30l5 -17v-5q0 -28 -55 -77l-98 -98q-13 -12 -31 -12
t-30 12q-254 254 -514 518q-30 30 1 61l500 500q24 24 44 24z" />
    <glyph glyph-name="greaterequal" unicode="&#x2265;" horiz-adv-x="805" 
d="M754 241q46 0 46 -45v-146q0 -48 -46 -48h-627q-20 0 -32.5 15.5t-12.5 32.5v146q0 22 13.5 33.5t31.5 11.5h627zM232 390q-18 0 -30 12l-99 98q-54 54 -54 77v5l5 17l27 30l320 321q-80 81 -160 161l-160 160q-30 35 -30 53q0 17 17.5 36.5t32.5 36.5l97 95q13 13 33 13
t44 -24l501 -500q32 -32 1 -61q-130 -131 -256.5 -259t-257.5 -259q-13 -12 -31 -12z" />
    <glyph glyph-name="s_t" unicode="&#xfb06;" horiz-adv-x="1516" 
 />
    <glyph glyph-name="at.001" horiz-adv-x="1956" 
d="M820.5 395.5q53.5 -55.5 131.5 -55.5t132 55t54 136t-54 137t-132 56t-131.5 -57t-53.5 -136q0 -80 53.5 -135.5zM1418 -111q10 0 22 -15l96 -142q5 -8 5 -20t-20 -25q-368 -218 -690 -125.5t-504.5 274.5t-235.5 370.5t-53 324t35.5 261.5t132 293t324.5 302.5
t497 135.5q222 -4 426 -107t330 -287t126 -413q0 -310 -109.5 -486t-320.5 -176h-145q-37 0 -85 42q-52 36 -74 74q-59 -67 -109.5 -103t-133.5 -38h-2q-217 0 -356 147.5t-139 357t138.5 354t345.5 150.5q140 0 192.5 -64t73.5 -98l32 102q7 30 15.5 39t35.5 9h132
q20 0 35 -12.5t15 -33.5v-614q0 -49 15.5 -61t56.5 -12q79 0 123.5 121.5t44.5 269.5q0 276 -190 442.5t-464 166.5q-217 0 -412 -114q-179 -111 -273 -273t-94 -365q0 -315 183 -500.5t327.5 -227t223.5 -41.5q135 0 224 27.5t180 83.5q13 6 23 6z" />
    <glyph glyph-name="cyrbreve" horiz-adv-x="0" 
 />
    <glyph glyph-name="hyphen.cap" horiz-adv-x="1126" 
d="M171 702q0 45 45 46h698q18 0 31.5 -12t13.5 -34v-207q0 -15 -12 -32.5t-33 -17.5h-698q-45 0 -45 50v207z" />
    <glyph glyph-name="commaaccent" horiz-adv-x="591" 
d="M130 -259q0 17 11 28.5t30 11.5h242q15 0 29 -11t14 -29v-263q0 -87 -44.5 -163t-128.5 -125q-1 -1 -17 -1t-29 11l-63 54q-17 14 -17 28t12 25.5t40 38.5t28 71v40q0 15 -17 20h-52q-38 1 -38 40v224z" />
    <glyph glyph-name="undercommaaccent" horiz-adv-x="271" 
d="M112 58q0 45 45 45h270q17 0 32.5 -12t15.5 -33v-294q0 -150 -88.5 -236t-115.5 -86t-41 14l-69 59q-20 15 -20 30q0 16 14 29.5t44.5 44t30.5 78.5v45q0 18 -18 21h-58q-42 2 -42 46v249z" />
    <glyph glyph-name="k.alt" horiz-adv-x="1446" 
d="M1428 43q0 -26 -12.5 -34.5t-38.5 -8.5h-346q-29 0 -66 53l-335 474l-114 -117v-331q0 -48 -23.5 -63.5t-45.5 -15.5h-257q-46 0 -56.5 33t-10.5 35v1163q0 43 13 60.5t67 17.5h244q66 0 66 -68v-380l369 410q27 30 63 29h315q56 0 56 -44q0 -17 -19 -38l-420 -445
l529 -680h-2q24 -24 24 -50z" />
    <glyph glyph-name="Phi.alt" horiz-adv-x="1732" 
d="M-9 1525h226q18 0 30 -12t8 -31l-31 -295q-2 -17 -14.5 -31t-30.5 -14h-143q-47 5 -47 45l-34 302q-2 15 8 25.5t28 10.5zM412 729q0 -124 69 -213t193 -125v686q-115 -37 -188.5 -130.5t-73.5 -217.5zM1162.5 953.5q-72.5 93.5 -191.5 127.5v-690q121 34 192.5 124.5
t71.5 217.5t-72.5 220.5zM267.5 1146.5q154.5 175.5 406.5 217.5v20q0 36 24 62.5t76 26.5h94q64 0 83.5 -34.5t19.5 -54.5v-20q242 -53 403.5 -228t161.5 -409t-157 -408.5t-408 -212.5v-18q0 -88 -103 -88h-94q-52 0 -76 21t-24 67v21q-239 54 -400 229.5t-161 403.5
q0 229 154.5 404.5z" />
    </font>
</defs>
</svg>
